[bittorrent] Grateful Dead & Jefferson Airplane (-: *GD66-67* :-) O'Keefe Centre, Toronto, Ontario - 8/5/67 [SBD.10356]

Automated Mailer noreply-bt.e at etree.org
Mon Jul 9 12:20:35 MDT 2007


Band:           Grateful Dead
Torrent Name:   Grateful Dead & Jefferson Airplane (-: *GD66-67* :-) O'Keefe Centre, Toronto, Ontario - 8/5/67 [SBD.10356]
Uploaded by:    cletus_boy
DB Link:        http://db.etree.org/shn/10356
Details:        http://bt.etree.org/details.php?id=508077

Contact the seeder at http://db.etree.org/cletus_boy

If the link to this show does not work, it was probably removed for
being non-trade-friendly.

Description / text file:
-------------------------
(-: *GD66-67* :-)

The Grateful Dead & Jefferson Airplane
Saturday, August 5, 1967 

"Bill Graham Presents the San Francisco Scene in Toronto"
O'Keefe Centre, Toronto ONT, Canada

Dead:
1.  Turn On Your Lovelight         [ 7:22]
2.  Alligator                      [11:08]

Airplane:
3.  //The Other Side Of This Life  [ 8:19]
4.  Get Together                   [ 4:54]
5.  Let Me In                      [ 5:12]
6.  Today                          [ 3:39]
7.  Jorma's Bangs                  [ 1:19]
8.  Go To Her                      [ 5:34]
9.  My Best Friend                 [ 3:05]
10. Instrumental Jam               [11:44]
11. 3/5 of a Mile In 10 Seconds*   [ 5:55]
12. Fat Angel*                     [ 6:46]
13. Somebody To Love**             [ 3:25]

Total time:                        [78:28]

Tracks 1-10: Stereo SBD MR>R>DAT(3)>CDR(unknown number of CD gens)>EAC>
Cool Edit 2000>CD Wave>SHN

* Tracks 11 & 12: Stereo SBD MR>R>C>C>DAT(3)>CDR(unknown number of CD 
gens)>EAC>Cool Edit 2000>CD Wave>SHN

** Track 13: Mono Cassette unknown generation>DAT(3)>CDR(unknown number 
of CD gens)>EAC>Cool Edit 2000>CD Wave>SHN
 
SHN's created by Greg Hurwitt, phobos at quik.com.  Notes on SHN 
creation:

I started with seed discs kindly supplied by Stu Hanson from the BUDD 
mailing list.  Discs were ripped using EAC V0.9pb11 two times and 
checksums compared to insure perfect rip.  

The following edits were then made using Cool Edit 2000:

  - removed four light clicks at t8 5:29
  - removed click at t9 2:13
  - removed clicks at previous track boundaries

Tracks were split using CD Wave V1.62, and sector boundaries verified 
using shntool V1.01.  SHN's were created (with seek information 
embedded) using mkwACT V0.97b1.

The show was treed via the JFT and GDH-Trading mailing lists in 
October 2001. 

The following flaws are present on this seed:

  - t3 3:45, left channel dropped
  - t3 6:58-7:04, right channel dropped
  - t3 8:04, digi-static
  - t5 0:01, digi-static
  - t5 0:38-0:41, left channel dropped
  - t8 0:23, very light digi-static
  - t9 2:24, distortion
  - t10 8:59, very light digi-static 


SHNTOOL OUTPUT:
    length     expanded size   cdr  WAVE problems filename
     7:22.47       78079388    ---   --   ---xx   ja67-08-05t01.shn
    11:08.72      118004588    ---   --   ---xx   ja67-08-05t02.shn
     8:19.15       88058924    ---   --   ---xx   ja67-08-05t03.shn
     4:54.36       51946316    ---   --   ---xx   ja67-08-05t04.shn
     5:12.40       55130924    ---   --   ---xx   ja67-08-05t05.shn
     3:39.40       38725724    ---   --   ---xx   ja67-08-05t06.shn
     1:19.65       14088524    ---   --   ---xx   ja67-08-05t07.shn
     5:34.60       59058764    ---   --   ---xx   ja67-08-05t08.shn
     3:05.00       32634044    ---   --   ---xx   ja67-08-05t09.shn
    11:44.65      124338524    ---   --   ---xx   ja67-08-05t10.shn
     5:55.10       62645564    ---   --   ---xx   ja67-08-05t11.shn
     6:46.10       71641964    ---   --   ---xx   ja67-08-05t12.shn
     3:25.45       36267884    ---   --   ---xx   ja67-08-05t13.shn
    78:28.55      830621132 B                     (totals for 13 files, 0.6229 overall compression ratio)

MD5:
478c0177486cfe65e0c97f0d6c8f71d9 *ja67-08-05t01.shn
3bfba7fa97d0d6beb300fd6589bb7866 *ja67-08-05t02.shn
f201b60df3e06be5c9fcaf8021b1c522 *ja67-08-05t03.shn
fa9fdc4c97c438f2cc119c0c4bbc02b3 *ja67-08-05t04.shn
effe3f2e428224d1ef6359b14d7dc11b *ja67-08-05t05.shn
25649077305855fa98e04ec352dcafe1 *ja67-08-05t06.shn
e5ee985c579ba2a898eba7bfd1ac917b *ja67-08-05t07.shn
41a412755e5cdcb7f69482e5c8cf20fd *ja67-08-05t08.shn
512810322d98057917c830a6ec265451 *ja67-08-05t09.shn
e63b2787cac97945de126e6c71f1dc4c *ja67-08-05t10.shn
0be6e87acee6427921c610b8d175f042 *ja67-08-05t11.shn
b97c4a6cca6080faf773f0f22a6d1e7b *ja67-08-05t12.shn
cc93896818acb7ae4d78f30e86d96f7d *ja67-08-05t13.shn



More information about the bittorrent mailing list