[bittorrent] Ouformation 2007-06-28 - Fox Theatre - Boulder, CO - JW mod AKG463

Automated Mailer noreply-bt.e at etree.org
Sun Jul 8 14:48:27 MDT 2007


Band:           Other
Torrent Name:   Ouformation 2007-06-28 - Fox Theatre - Boulder, CO - JW mod AKG463
Uploaded by:    funkdoc
DB Link:        
Details:        http://bt.etree.org/details.php?id=508047

Contact the seeder at http://db.etree.org/funkdoc

If the link to this show does not work, it was probably removed for
being non-trade-friendly.

Description / text file:
-------------------------
Outformation
Thursday
06/28/07
Fox Theatre
Boulder, CO

Source: JW mod AKG463->m148->ACM Tascam HD-P2
DSP: flashcard->PC->Audacity (24/48->16/44)->flac(as sets 1&2)->.wav->CDWave->.flac (6)
Taped by Harrison Keijzer
Tracked/flac'd/seeded by Dustin Hassenstab

Disc 1
Set 1:
01. [01:58] Intro
02. [12:07] Start It Out Again
03. [06:44] Dark Severinsen
04. [08:21] Winds
05. [08:37] 90
06. [08:13] West L.A. Fadeaway
07. [03:29] Valley Blue
Set 2:
08. [01:14] Intro
09. [06:00] Titles Of Movies Will Not Appear On Bill
10. [09:35] Into My Arms
11. [08:05] Center Stage* ->
12. [07:35] Frenchy's Theme

Disc 2
01. [06:49] Sweet Louisiana*
02. [11:01] Carnac
03. [10:10] Traveler's Rest
04. [05:45] Glad
05. [06:26] Burned Faceless ->
06. [09:18] Long Hard Ride
Encore:
07. [03:36] Anymore
08. [05:23] Can't Change The Past ->
09. [04:28] Camper ->
10. [01:42] Titles Of Movies Will Not Appear On Bill

Guests:
*Adam Kilgus on guitar

Notes: 'Sigh Of Relief' sample during 'Center Stage' - 'Frenchy Rap' during 'Frenchy's Theme'

shntool:
    length     expanded size   cdr  WAVE problems filename
     1:58.44       20918732    ---   --   ---xx   outformation2007-06-28d1t01.flac
    12:07.11      128268716    ---   --   ---xx   outformation2007-06-28d1t02.flac
     6:44.00       71265644    ---   --   ---xx   outformation2007-06-28d1t03.flac
     8:21.71       88543436    ---   --   ---xx   outformation2007-06-28d1t04.flac
     8:37.27       91262348    ---   --   ---xx   outformation2007-06-28d1t05.flac
     8:13.42       87064028    ---   --   ---xx   outformation2007-06-28d1t06.flac
     3:29.11       36893516    ---   --   ---xx   outformation2007-06-28d1t07.flac
     1:14.19       13098332    ---   --   ---xx   outformation2007-06-28d1t08.flac
     6:00.30       63574604    ---   --   ---xx   outformation2007-06-28d1t09.flac
     9:35.37      101517068    ---   --   ---xx   outformation2007-06-28d1t10.flac
     8:05.64       85704572    ---   --   ---xx   outformation2007-06-28d1t11.flac
     7:35.22       80313788    ---   --   ---xx   outformation2007-06-28d1t12.flac
     6:49.54       72274652    ---   --   ---xx   outformation2007-06-28d2t01.flac
    11:01.28      116666300    ---   --   ---xx   outformation2007-06-28d2t02.flac
    10:10.56      107735756    ---   --   ---xx   outformation2007-06-28d2t03.flac
     5:45.21       60907436    ---   --   ---xx   outformation2007-06-28d2t04.flac
     6:26.51       68210396    ---   --   ---xx   outformation2007-06-28d2t05.flac
     9:18.02       98435948    ---   --   ---xx   outformation2007-06-28d2t06.flac
     3:36.66       38257676    ---   --   ---xx   outformation2007-06-28d2t07.flac
     5:23.62       57123068    ---   --   ---xx   outformation2007-06-28d2t08.flac
     4:28.17       47315228    ---   --   ---xx   outformation2007-06-28d2t09.flac
     1:42.36       18077516    ---   --   ---xx   outformation2007-06-28d2t10.flac
   146:46.21     1553428760 B                     (totals for 22 files, 0.6315 overall compression ratio)

outformation2007-06-28.akg463.d1t01.flac:6900bdf5c4318a42f48b5c179fea8e4e
outformation2007-06-28.akg463.d1t02.flac:6e876cf7cd0e310bd855e49e68b9ea83
outformation2007-06-28.akg463.d1t03.flac:512e5c7fcddc42c767c94a27c5ef0b1b
outformation2007-06-28.akg463.d1t04.flac:b4af67a9b3f4f81aa38ed278d0cc690f
outformation2007-06-28.akg463.d1t05.flac:963d5093479fdf893fb11af3ae7bc169
outformation2007-06-28.akg463.d1t06.flac:02fb23ca710b86abd8919392f40dfc92
outformation2007-06-28.akg463.d1t07.flac:feafb219a0ef8bfe5ac0e50ea642f26e
outformation2007-06-28.akg463.d1t08.flac:2982db76738a371799df3addc446cfdb
outformation2007-06-28.akg463.d1t09.flac:873c0fc4eaea992304676618c17ac9c1
outformation2007-06-28.akg463.d1t10.flac:024413f2b8ef0464848c14e663c09f95
outformation2007-06-28.akg463.d1t11.flac:f08eb7385a66b578581942df75d7162c
outformation2007-06-28.akg463.d1t12.flac:1b189a809792e1ed3dbd7f6886016b67
outformation2007-06-28.akg463.d2t01.flac:d2f0ccf057a8de2d57b666e31449ce56
outformation2007-06-28.akg463.d2t02.flac:777d0e0e53af959bb474b87988360c9a
outformation2007-06-28.akg463.d2t03.flac:7c50d09bb7ecfa214ae4ad0bc48ef185
outformation2007-06-28.akg463.d2t04.flac:8cd74274961c1414253ef5e8fb6afdf6
outformation2007-06-28.akg463.d2t05.flac:9ff4d177675b9ca536a0c7768be51ba9
outformation2007-06-28.akg463.d2t06.flac:f5c6c659008e64abe09f53b2c986bfa9
outformation2007-06-28.akg463.d2t07.flac:0ae04811701d7a3b1191ba58fdb3a38d
outformation2007-06-28.akg463.d2t08.flac:bfda191b0c42d29e084ad049113fed93
outformation2007-06-28.akg463.d2t09.flac:8d8f5905e07be41bc078a0be0920250c
outformation2007-06-28.akg463.d2t10.flac:69edbd0000659c72ad6fb13b59608060




More information about the bittorrent mailing list