[bittorrent] Tea Leaf Green - 6/30/07 - Crested Butte, CO

Automated Mailer noreply-bt.e at etree.org
Fri Jul 6 20:09:48 MDT 2007


Band:           Tea Leaf Green
Torrent Name:   Tea Leaf Green - 6/30/07 - Crested Butte, CO
Uploaded by:    cimburgia
DB Link:        
Details:        http://bt.etree.org/details.php?id=508008

Contact the seeder at http://db.etree.org/cimburgia

If the link to this show does not work, it was probably removed for
being non-trade-friendly.

Description / text file:
-------------------------
Tea Leaf Green
06-30-07 
Center for the Arts  
Outdoor Stage
Crested Butte, Colorado

Source: Schoeps mk21 (DFC/NOS/FOB)-> kc5-> cmc6xt-> SD722 (24/96)-> CD Wave-> Wavelab (16/44)-> FLAC Frontend (Level 6)-> FLAC
Taper: Chris Imburgia

* Please do not convert these files to mp3 or other lossy formats and re-circulate.  You may convert to mp3 for your own private use.
* You may share and trade these files freely, please do not sell this recording.

(Disc One)
1. These Two Chairs>
2. Kali-Yuga
3. Earth and Sky
4. Ride Together>
5. Criminal Intent>
6. Jezebel
7. Faced With Love>
8. Dragonfly
(Disc Two)
1. Franz Hanzerbeak @
2. Garden III #
3. Bouncin Betty
4. Cops Took My Weed>
5. Georgie P
6. Incandescent Devil #
7. Sex in the 70's #

# With John Popper
@ With DJ Logic

FLAC Fingerprint
----------------------------------
tlg2007-06-30d2t07.flac:a17f458e9a8c9f68afd5024704e69ad1
tlg2007-06-30d1t01.flac:eb51870ccc40e1ce9856d4386092cfd1
tlg2007-06-30d1t02.flac:f52b6cd8754ef1b55f319658e475ff3b
tlg2007-06-30d1t03.flac:fd0692cce6befce9a0622037accbb74c
tlg2007-06-30d1t04.flac:af39d310e6263a95d61140ad3fd9ff9d
tlg2007-06-30d1t05.flac:808cc534f85535e13609888615069895
tlg2007-06-30d1t06.flac:258a394b68af2bf9632221ba7beffdf8
tlg2007-06-30d1t07.flac:d651be7487dac98862c48376bb511f5b
tlg2007-06-30d1t08.flac:755b1647fb8ef842e1372b0ac266dfe4
tlg2007-06-30d2t01.flac:78e17475e21157f765ec34a3bcae2562
tlg2007-06-30d2t02.flac:9a3239499b0868c6bb38d33344fc5961
tlg2007-06-30d2t03.flac:fa4588b3555485245a7ad4041430b07c
tlg2007-06-30d2t04.flac:f41640c3d29a0f784c08ebeb4c0912d3
tlg2007-06-30d2t05.flac:eaa80e2ffe015801890ae57252869471
tlg2007-06-30d2t06.flac:bbac3b3e8e3ed87a298d804a279987d9


Sector Boundary Verification
---------------------------------------
 length     expanded size   cdr  WAVE problems filename
     5:41.00       60152444    ---   --   ---xx   tlg2007-06-30d1t01.flac
     9:47.28      103612700    ---   --   ---xx   tlg2007-06-30d1t02.flac
     5:47.24       61267292    ---   --   ---xx   tlg2007-06-30d1t03.flac
     7:43.40       81767324    ---   --   ---xx   tlg2007-06-30d1t04.flac
     8:22.48       88665740    ---   --   ---xx   tlg2007-06-30d1t05.flac
     8:12.67       86946428    ---   --   ---xx   tlg2007-06-30d1t06.flac
     4:57.47       52501388    ---   --   ---xx   tlg2007-06-30d1t07.flac
     5:10.24       54740492    ---   --   ---xx   tlg2007-06-30d1t08.flac
    11:40.68      123639980    ---   --   ---xx   tlg2007-06-30d2t01.flac
     6:22.40       67478924    ---   --   ---xx   tlg2007-06-30d2t02.flac
     7:30.17       79420028    ---   --   ---xx   tlg2007-06-30d2t03.flac
     4:07.66       43726076    ---   --   ---xx   tlg2007-06-30d2t04.flac
     8:55.46       94482236    ---   --   ---xx   tlg2007-06-30d2t05.flac
     7:34.20       80132684    ---   --   ---xx   tlg2007-06-30d2t06.flac
    16:49.06      178001756    ---   --   ---xx   tlg2007-06-30d2t07.flac
   118:43.16     1256535492 B                     (totals for 15 files, 0.5004 overall compression ratio)






More information about the bittorrent mailing list