[bittorrent] Grateful Dead gd1979-10-31.fob.glassberg.motb.0039.86239.flac16

Automated Mailer noreply-bt.e at etree.org
Thu Jul 5 14:27:36 MDT 2007


Band:           Grateful Dead
Torrent Name:   Grateful Dead gd1979-10-31.fob.glassberg.motb.0039.86239.flac16
Uploaded by:    blanquito
DB Link:        http://db.etree.org/shn/86239
Details:        http://bt.etree.org/details.php?id=507984

Contact the seeder at http://db.etree.org/blanquito

If the link to this show does not work, it was probably removed for
being non-trade-friendly.

Description / text file:
-------------------------
MotB Release: 0039/16bit
Release Date: 7/5/2007

Band: Grateful Dead
Date: 10/31/1979 - Wednesday
Venue: Nassau Veterans Memorial Coliseum
Location: Uniondale, NY

Source: Audience At SBD Recording
Media: Maxell UD-XLII 90 min.
Lineage: Nakamichi CM700's > Sony TCD5 > MAC 50ft. DFC Hand-Held
Transfer: MAC > Nakamichi DR-1 > Benchmark ADC-1 > AES > Sound Devices 722 > WAV

Taped by: B. Glassberg
Transfer by: A. Egert
Mastering by: SIRMick

Disc 1
SET I
01   crowd/tuning
02   China Cat Sunflower > @
03   I Know You Rider
04   crowd/tuning
05   Cassidy
06   crowd/tuning
07   Loser
08   crowd/"take a step back"/Weir's quiz #1// *
09   Me And My Uncle >
10   Big River
11   crowd/tuning/ "take a step back"
12   Althea
13   crowd/tuning
14   Lost Sailor >
15   Saint Of Circumstance

Disc 2
SET II
01   crowd/tuning/Weir's quiz #2
02   Shakedown Street
03   crowd/tuning
04   Passenger
05   crowd/tuning
06   Ramble On Rose
07   crowd/tuning
08   Estimated Prophet >
09   Eyes Of The World >
10   Space >

Disc 3              
SET II cont'd
01   Drums > #
02   Space >
03   Wharf Rat >
04   Truckin'
05   crowd/tuning

ENCORE
06   Johnny B. Goode

Mastering Notes:

software use:
- Adobe Audition, Sound Forge, Wavelab (with iZotope Ozone and BBE Sonic Maximizer) downsampled with Wavelab and dithered with iZotope Ozone (MBIT+ setting)

- @ At the start of Chinacat the enthusiam of the crowd almost completely drown out the music and vocals. To bring the music up I have made a matrix from 0:29 to 1:36. The sbd source used is SBD -> Cassette Master -> Reel -> Dat -> CD (shnid 29410)

- * There is a tape flip after Weir asks the question, the answer is missing from this recording. He says "... and the answer is, one leg's both the same."

- # Tape flip in Drums has been crossfaded 

- The volume from 0:32 of d3t05 through to the end of the show was significantly lower in the left channel.
- I boosted it by around 6.5 decibels.  This section sounds slightly inferior to the rest of the show.

Seamless join between discs 2 & 3


FLAC FINGERPRINTS:
gd1979-10-31.motb.0039.d1t01.flac:e1a39087cbf8fa0fee5fee3416cebaba
gd1979-10-31.motb.0039.d1t02.flac:8bc3b79534d2f9bab74b0b83f72a47a3
gd1979-10-31.motb.0039.d1t03.flac:13a4c17a8954e06ff71efc6fb28634bc
gd1979-10-31.motb.0039.d1t04.flac:0006bdc1e5923ffdec0614cc34971d49
gd1979-10-31.motb.0039.d1t05.flac:25bbb1f3151833f459d83c8b3bc2aa0a
gd1979-10-31.motb.0039.d1t06.flac:83be2be5c333c61bb6af3d11be8289b0
gd1979-10-31.motb.0039.d1t07.flac:413bca83e3b01055a70b0d498365edad
gd1979-10-31.motb.0039.d1t08.flac:6bdd8a87e62bb8c19b8b8d9dc0b66b6d
gd1979-10-31.motb.0039.d1t09.flac:167edc665b4dcab3058d4cbe18b0117e
gd1979-10-31.motb.0039.d1t10.flac:11adf098fcab100ec91c7caf0b332409
gd1979-10-31.motb.0039.d1t11.flac:195ade38d4e63f05ea72a082b54200db
gd1979-10-31.motb.0039.d1t12.flac:d03e5ec4da8cd0cea7a7d6ea274dbc91
gd1979-10-31.motb.0039.d1t13.flac:ca29ff9d12c40d6c30922b49f8f2a20d
gd1979-10-31.motb.0039.d1t14.flac:c42f66fb4d1fdab9e8fb421f300715ff
gd1979-10-31.motb.0039.d1t15.flac:6bc19804b0026050e9a9de58001b2d06
gd1979-10-31.motb.0039.d2t01.flac:d8f465e2875e0ce94b7aae9e340713cd
gd1979-10-31.motb.0039.d2t02.flac:35d11585f75fa05b3ca6ea3d7a38f359
gd1979-10-31.motb.0039.d2t03.flac:11a7124cde61b4277783c3f28765c024
gd1979-10-31.motb.0039.d2t04.flac:fd02fec1272b9d79ba6c5b7d0c22a9af
gd1979-10-31.motb.0039.d2t05.flac:b110cabc392e4ea0c397686ce4f5ed8e
gd1979-10-31.motb.0039.d2t06.flac:1632047cb22516b6379631e115b24b51
gd1979-10-31.motb.0039.d2t07.flac:8c1e52f6b91987ed840ee8b99f74fd38
gd1979-10-31.motb.0039.d2t08.flac:c9fbef906e91400e297aa83a515f3e7b
gd1979-10-31.motb.0039.d2t09.flac:3759997a6cb6b170960c3cd53fd4a56f
gd1979-10-31.motb.0039.d2t10.flac:6b1192c57291659f28b64a79b03d021c
gd1979-10-31.motb.0039.d3t01.flac:ecd71b2def8d1a5de2af476b1b441001
gd1979-10-31.motb.0039.d3t02.flac:10e55fd8fe83223b2710d19e036c1cc0
gd1979-10-31.motb.0039.d3t03.flac:0202cda767f0f9d8047b507de993444a
gd1979-10-31.motb.0039.d3t04.flac:8ee3e4df5a8e650b330eba7ced2de897
gd1979-10-31.motb.0039.d3t05.flac:207fca1a8849bb668ae4d8c2e5344c4b
gd1979-10-31.motb.0039.d3t06.flac:de29494548afe999da4e632525ed0aae

MD5 CHECKSUMS:
d3b5676c412b997361b825b43f49dd57 *gd1979-10-31.motb.0039.d1t01.flac
05d1b098c7a1ed8c41b32ce382f60ce6 *gd1979-10-31.motb.0039.d1t02.flac
6bcb52a5633cdaf5d39dafbf3730c606 *gd1979-10-31.motb.0039.d1t03.flac
9a1a4e04f8cc48b6fe3141c62b37849e *gd1979-10-31.motb.0039.d1t04.flac
f1adab68840f3db4054722f8074562e9 *gd1979-10-31.motb.0039.d1t05.flac
4b31e075fc3cbca51f3f4866c18f280f *gd1979-10-31.motb.0039.d1t06.flac
eb958c5310d9c83b85a072a68e3ced8f *gd1979-10-31.motb.0039.d1t07.flac
2bbe5e0ec5fe647e6533e8ca85bcc5bd *gd1979-10-31.motb.0039.d1t08.flac
aaf9cc496f92b50b47621675d8079dbd *gd1979-10-31.motb.0039.d1t09.flac
930cb724f9e165e54ec778a48796eba3 *gd1979-10-31.motb.0039.d1t10.flac
98d861b720d8658d7a5b2d2f7e44c255 *gd1979-10-31.motb.0039.d1t11.flac
3c959956d8c34b937c8e356a8bcd6c1d *gd1979-10-31.motb.0039.d1t12.flac
b9ca32e26e1508db1f3813a3f6c892b8 *gd1979-10-31.motb.0039.d1t13.flac
58bce8ec756dd4ee25dfcfbf2cec9a7d *gd1979-10-31.motb.0039.d1t14.flac
9ead3a59e0b430dd977aaac56f5787ea *gd1979-10-31.motb.0039.d1t15.flac
ecdd7c21e55068848044997343a3d0de *gd1979-10-31.motb.0039.d2t01.flac
d28a33bc00a78aa5494a1ddcc6225e01 *gd1979-10-31.motb.0039.d2t02.flac
a934d1bdddc2f4bf1a55240351152f80 *gd1979-10-31.motb.0039.d2t03.flac
23fce73bb90b19a3f5d3be37fc770ef8 *gd1979-10-31.motb.0039.d2t04.flac
a0077ba42e542a0f93e3ac832331ef36 *gd1979-10-31.motb.0039.d2t05.flac
d8ca42496734406de7c126475533a216 *gd1979-10-31.motb.0039.d2t06.flac
d0e948f2a02242ff71f27b1e1eff12e4 *gd1979-10-31.motb.0039.d2t07.flac
65e9c1d8bfaa009806adc6ce05287173 *gd1979-10-31.motb.0039.d2t08.flac
ab45b5f4bf44e68b8483d022f301a25a *gd1979-10-31.motb.0039.d2t09.flac
2969cd87d2966305ac44b65be7228fb5 *gd1979-10-31.motb.0039.d2t10.flac
26c257a4e3fcdc26c4623e3689fbf2fb *gd1979-10-31.motb.0039.d3t01.flac
736b5f62c8b5f4e0f439be151f9c768f *gd1979-10-31.motb.0039.d3t02.flac
b1b3bdd845db06d2667461e11a05983a *gd1979-10-31.motb.0039.d3t03.flac
645a4c5c71590a85eb6dd068eb757ee7 *gd1979-10-31.motb.0039.d3t04.flac
3539b99a6d76909260a1b79fa2cf236e *gd1979-10-31.motb.0039.d3t05.flac
91f11e9652e0dc40c8fb6a4b977a2a58 *gd1979-10-31.motb.0039.d3t06.flac

SHNTOOL OUTPUT:
    length     expanded size   cdr  WAVE problems filename
     1:08.56       12126956    ---   --   ---xx   gd1979-10-31.motb.0039.d1t01.flac
     7:37.10       80638364    ---   --   ---xx   gd1979-10-31.motb.0039.d1t02.flac
     7:05.52       75092348    ---   --   ---xx   gd1979-10-31.motb.0039.d1t03.flac
     3:27.05       36526604    ---   --   ---xx   gd1979-10-31.motb.0039.d1t04.flac
     4:47.70       50791484    ---   --   ---xx   gd1979-10-31.motb.0039.d1t05.flac
     2:26.09       25775612    ---   --   ---xx   gd1979-10-31.motb.0039.d1t06.flac
     7:17.44       77190332    ---   --   ---xx   gd1979-10-31.motb.0039.d1t07.flac
     5:37.33       59524460    ---   --   ---xx   gd1979-10-31.motb.0039.d1t08.flac
     3:06.71       32977436    ---   --   ---xx   gd1979-10-31.motb.0039.d1t09.flac
     5:46.68       61194380    ---   --   ---xx   gd1979-10-31.motb.0039.d1t10.flac
     4:55.70       52202684    ---   --   ---xx   gd1979-10-31.motb.0039.d1t11.flac
     8:08.44       86186732    ---   --   ---xx   gd1979-10-31.motb.0039.d1t12.flac
     1:26.72       15339788    ---   --   ---xx   gd1979-10-31.motb.0039.d1t13.flac
     6:24.00       67737644    ---   --   ---xx   gd1979-10-31.motb.0039.d1t14.flac
     5:45.45       60963884    ---   --   ---xx   gd1979-10-31.motb.0039.d1t15.flac
     3:29.67       37025228    ---   --   ---xx   gd1979-10-31.motb.0039.d2t01.flac
    17:23.71      184152236    ---   --   ---xx   gd1979-10-31.motb.0039.d2t02.flac
     1:55.68       20445980    ---   --   ---xx   gd1979-10-31.motb.0039.d2t03.flac
     5:11.38       54949820    ---   --   ---xx   gd1979-10-31.motb.0039.d2t04.flac
     1:41.25       17875244    ---   --   ---xx   gd1979-10-31.motb.0039.d2t05.flac
     7:52.15       83296124    ---   --   ---xx   gd1979-10-31.motb.0039.d2t06.flac
     2:18.44       24446732    ---   --   ---xx   gd1979-10-31.motb.0039.d2t07.flac
    14:33.41      154093676    ---   --   ---xx   gd1979-10-31.motb.0039.d2t08.flac
    15:53.44      168212732    ---   --   ---xx   gd1979-10-31.motb.0039.d2t09.flac
     3:15.10       34421564    ---   --   ---xx   gd1979-10-31.motb.0039.d2t10.flac
     7:58.21       84368636    ---   --   ---xx   gd1979-10-31.motb.0039.d3t01.flac
     6:40.27       70623548    ---   --   ---xx   gd1979-10-31.motb.0039.d3t02.flac
    10:05.01      106724396    ---   --   ---xx   gd1979-10-31.motb.0039.d3t03.flac
    10:42.38      113338220    ---   --   ---xx   gd1979-10-31.motb.0039.d3t04.flac
     1:57.14       20671772    ---   --   ---xx   gd1979-10-31.motb.0039.d3t05.flac
     4:48.64       50953772    ---   --   ---xx   gd1979-10-31.motb.0039.d3t06.flac
   190:50.37     2019868388 B                     (totals for 31 files, 0.6623 overall compression ratio)





More information about the bittorrent mailing list