[bittorrent] Grateful Dead (-: *GD66-67* :-) Monterey Pop Festival, Monterey, CA - 6/18/67 [SBD.42]

Automated Mailer noreply-bt.e at etree.org
Thu Jul 5 11:04:56 MDT 2007


Band:           Grateful Dead
Torrent Name:   Grateful Dead (-: *GD66-67* :-) Monterey Pop Festival, Monterey, CA - 6/18/67 [SBD.42]
Uploaded by:    cletus_boy
DB Link:        http://db.etree.org/shn/42
Details:        http://bt.etree.org/details.php?id=507980

Contact the seeder at http://db.etree.org/cletus_boy

If the link to this show does not work, it was probably removed for
being non-trade-friendly.

Description / text file:
-------------------------
(-: *GD66-67* :-)

Grateful Dead
06/18/67
Monterey Pop Festival, Fairgrounds
Monterey, CA

1. Cold Rain And Snow
2. Viola Lee Blues
3. Alligator >
4. Caution (Do Not Stop on  Tracks)

Source: SBD:MR>Cass>DAT>ZA2>CD
	Alligator -> Caution has no cassette gen.


Comments: (from Dead List Reader)
Alligator > Caution may not be from Monterey. 
What makes me suspicious is that at the conclusion of 
Caution, Bill Graham is heard to say something like  
"let's hear it for the Grateful Dead."  Bill Graham 
was not the emcee at the Monetery Pop Festival, so 
it's doubtful he would introduce the BAND from the 
stage. However, some folks have speculated that since 
Graham was in attendance and a friend of the Dead, 
he might have done the intro and or the outro as a 
"guest emcee."  The Alligator is a curiosity; it's a 
very primordial version without vocals.  Some parts 
are missing. Pigpen plays harmonica over the "verse" 
parts of the  song. If indeed this date is accurate 
and Alligator was not yet fully fleshed-out as of 
mid-June '67, the certainly the true date of "5/5/67" 
falls somewhere later in the year.  

Contributors:
Jeff Tiedrich <jeff at tiedrich.com>.

Thanx and a Tip o' the Hat to David Hollister
Posted to alt.binaries.gdead.highspeed April, 2000


SHNTOOL OUTPUT:
    length     expanded size   cdr  WAVE problems filename
     3:38.44       38558744    ---   h-   ---xx   gd67-06-18d1t01.shn
    11:03.12      116981480    ---   h-   ---xx   gd67-06-18d1t02.shn
     8:19.24       88080104    ---   h-   ---xx   gd67-06-18d1t03.shn
    11:52.16      125634488    ---   h-   ---xx   gd67-06-18d1t04.shn
    34:53.21      369254816 B                     (totals for 4 files, 0.6309 overall compression ratio)

MD5:
db354d3e82967bb63dd2695d21e3a3bf *gd67-06-18d1t01.shn
968b802eb009e3bf57aa751f8b7e43bb *gd67-06-18d1t02.shn
3213d31db20db9bb0450d3ccdada0f5c *gd67-06-18d1t03.shn
1e9a3ae4009bb313266b9b9ece3b4d1e *gd67-06-18d1t04.shn



More information about the bittorrent mailing list