[bittorrent] Tinsley Ellis--Pour House--James Island, SC--7/1/07--Peluso--CD Release Party

Automated Mailer noreply-bt.e at etree.org
Tue Jul 3 08:57:42 MDT 2007


Band:           Other
Torrent Name:   Tinsley Ellis--Pour House--James Island, SC--7/1/07--Peluso--CD Release Party
Uploaded by:    chrisdavis
DB Link:        http://db.etree.org/lookup_show.php?shows_key=374659
Details:        http://bt.etree.org/details.php?id=507927

Contact the seeder at http://db.etree.org/chrisdavis

If the link to this show does not work, it was probably removed for
being non-trade-friendly.

Description / text file:
-------------------------
Tinsley Ellis
The Pour House
James Island, SC
July 1, 2007 (Sunday)
"Moment of Truth" CD Release Party

source:   Peluso CEMC6/CK4 -> BMp+ mod UA-5 -> JB3
location: DFC / Clamped to ceiling / 13' off floor / 20' from stage
transfer: JB3 -> Creative Play Center -> CD Wave Editor -> FLAC (6)

taped/transferred:  Chris Davis+

One Set:

Disc 1:    (59:03)
01.  (0:36)   -intro-
02.  (4:58)   Hell or High Water
03.  (3:41)   Love Bomb
04.  (7:18)   A Quitter Never Wins
05.  (4:28)   To the Devil for a Dime
06.  (5:18)   Come Morning
07.  (3:58)   Tell the Truth ->
08.  (10:05)  You're Gonna Thank Me *
09.  (6:10)   Get to the Bottom
10.  (8:39)   2 or 3
11.  (5:53)   Mercy, Mercy, Mercy
12.  (4:13)   Panhead ->
13.  (3:51)   Up on Cripple Creek **

Disc 2:    (58:50)
01.  (1:11)   -banter/tuning-
02.  (8:48)   The Last Song
03.  (3:46)   Leavin' Here ->
04.  (9:58)   Pawnbroker ***
05.  (1:59)   -banter/band intros-
06.  (5:25)   The Next Miss Wrong
07.  (8:18)   The Axe
08.  (11:29)  Double Eyed Whammy

Encore:
09.  (7:56)   Real Bad Way

*with "Layla" Jam
**instrumental
***with "Born on the Bayou" Jam

+as always, recorded under the watchful eye of Col. George (ret.)+

For anybody who doesnt know about Tinsley, you can check out him and his band here:

http://tinsleyellis.com/

The new album is great, and I also recommend his live album, "Highwayman".
Go see Tinsley Ellis, you wont be dissapointed.

The Band:
Tinsley Ellis-  Guitar, Vocals
The Evil One-  Bass
Jeff "JB" Burch- Drums
Mike Lowry-  Guitar

te2007-07-01d1t01.flac:ee462eac2e2071ccdd06ff386ecce4d0
te2007-07-01d1t02.flac:9b0aae67d66baf6df301dd378f774872
te2007-07-01d1t03.flac:dec590175b8888e3268cd7fd7e559e45
te2007-07-01d1t04.flac:e7c84c4613bedafb7835f99b1bbc639d
te2007-07-01d1t05.flac:289e571c83362c1a47deec90f40158db
te2007-07-01d1t06.flac:387437cfbee6eb6f1149bef9964549c0
te2007-07-01d1t07.flac:a69dd324bfae705ccb65a7f36ea0ab1f
te2007-07-01d1t08.flac:95111c74fbb249200958b0a69f3a5673
te2007-07-01d1t09.flac:a075d6c6840b44e1728bcef8a657e68a
te2007-07-01d1t10.flac:6c53106cf46aba65e9193cfd03481fa9
te2007-07-01d1t11.flac:59bedda4285f91ebb3f8a5c5cc53ae72
te2007-07-01d1t12.flac:26ed6d577d9be24613def06f45a84179
te2007-07-01d1t13.flac:f5f17fe39eaec303b062e4aa142919a9
te2007-07-01d2t01.flac:3c6f7635ad1888cad71777fd4e2bbf45
te2007-07-01d2t02.flac:fe79e8e925c33ebba3fb461c1e2c3168
te2007-07-01d2t03.flac:d0f1609c7c56a9f32293287b86314b2e
te2007-07-01d2t04.flac:fdc2f235ba2a46e1f38bdd91630f0122
te2007-07-01d2t05.flac:5fb46524d3f83fac97a8565cc4bc6752
te2007-07-01d2t06.flac:d06644de9c04c0aabc544f2b2084c935
te2007-07-01d2t07.flac:d266fd4975ac9917e0cd7d96a026015c
te2007-07-01d2t08.flac:a4a059438b40d1fc6df757875bd371a3
te2007-07-01d2t09.flac:3721737463a615b72d76cec5de622cda

 length     expanded size    cdr  WAVE problems  fmt   ratio  filename
     0:36.49        6465692 B   ---   --   -----    wav  1.0000  te2007-07-01d1t01.wav
     4:58.57       52701308 B   ---   --   -----    wav  1.0000  te2007-07-01d1t02.wav
     3:41.20       39031484 B   ---   --   -----    wav  1.0000  te2007-07-01d1t03.wav
     7:18.05       77275004 B   ---   --   -----    wav  1.0000  te2007-07-01d1t04.wav
     4:28.43       47376380 B   ---   --   -----    wav  1.0000  te2007-07-01d1t05.wav
     5:18.73       56266940 B   ---   --   -----    wav  1.0000  te2007-07-01d1t06.wav
     3:58.60       42124364 B   ---   --   -----    wav  1.0000  te2007-07-01d1t07.wav
    10:05.57      106856108 B   ---   --   -----    wav  1.0000  te2007-07-01d1t08.wav
     6:10.70       65432684 B   ---   --   -----    wav  1.0000  te2007-07-01d1t09.wav
     8:39.19       91596332 B   ---   --   -----    wav  1.0000  te2007-07-01d1t10.wav
     5:53.38       62358620 B   ---   --   -----    wav  1.0000  te2007-07-01d1t11.wav
     4:13.56       44760956 B   ---   --   -----    wav  1.0000  te2007-07-01d1t12.wav
     3:51.27       40811948 B   ---   --   -----    wav  1.0000  te2007-07-01d1t13.wav
     1:11.06       12538556 B   ---   --   -----    wav  1.0000  te2007-07-01d2t01.wav
     8:48.27       93202748 B   ---   --   -----    wav  1.0000  te2007-07-01d2t02.wav
     3:46.36       39951116 B   ---   --   -----    wav  1.0000  te2007-07-01d2t03.wav
     9:58.66      105642476 B   ---   --   -----    wav  1.0000  te2007-07-01d2t04.wav
     1:59.39       21083372 B   ---   --   -----    wav  1.0000  te2007-07-01d2t05.wav
     5:25.32       57405308 B   ---   --   -----    wav  1.0000  te2007-07-01d2t06.wav
     8:18.46       87955436 B   ---   --   -----    wav  1.0000  te2007-07-01d2t07.wav
    11:29.43      121640780 B   ---   --   -----    wav  1.0000  te2007-07-01d2t08.wav
     7:56.02       83971148 B   ---   --   -----    wav  1.0000  te2007-07-01d2t09.wav
   128:09.46     1356448760 B                            1.0000  (22 files)



More information about the bittorrent mailing list