[bittorrent] The Big Wu 2000-03-31 @ The Tractor Tavern, Seattle, WA [The Petrified Wu Project]

Automated Mailer noreply-bt.e at etree.org
Mon Jul 2 17:09:47 MDT 2007


Band:           Other
Torrent Name:   The Big Wu 2000-03-31 @ The Tractor Tavern, Seattle, WA [The Petrified Wu Project]
Uploaded by:    nhteamfocker
DB Link:        
Details:        http://bt.etree.org/details.php?id=507907

Contact the seeder at http://db.etree.org/nhteamfocker

If the link to this show does not work, it was probably removed for
being non-trade-friendly.

Description / text file:
-------------------------
The Big Wu
3/31/00
The Tractor Tavern
Seattle, WA


Source:

Schoeps CMC-6/MK-4 > Oade > DA-P1 (48.0)

Conversion:

Tascam DA-20 MKII > Tascam HD-P2 > Sony Soundforge 8.0 (44.1) >
CD Wave > Flac

Taper:

Unknown

Conversion:

Patrick Price
patrickprice at comcast.net


Set 1:
Disc 1

1.  Two Person Chair
2.  Minnesota Moon
3.  Shantytown
4.  Red Sneakers
5.  Allgood
6.  Save Our Ship
7.  Silcanturnitova
8.  Dancing with Lula*
9.  Midnight Rudy

Disc 2

1.  Sugaree**
2.  Boxing Day
3.  Werewolves of London

Set 2:

4.  Jazz88
5.  Handle the Spam
6.  Midnight Moonlight
7.  Red Sky >
8.  Could You Be Loved
9.  Samson & Delilah**

Disc 3

1.  Break of Day >
2.  Red Sky
3.  Encore Break

Encore:

4. Bloodhound > 
5. Ride Mighty High

Notes:

* sung as "dancin' with Dewey" for a friend in the crowd; 
** MN friend Sarah Smith on back-up vocs
Was supposed to be a co-bill w/Floodplain Gang, 
but their van broke down, so it was all Wu all night.

Fingerprint:

wu2000-03-31d1t01.flac:39d545adda79053b9c7dc91a63c95103
wu2000-03-31d1t02.flac:1105b7652a20e26ba542179cfc29ec0e
wu2000-03-31d1t03.flac:aa2b5cf6681fdd5c64c331573ac6a824
wu2000-03-31d1t04.flac:eaf812448717b16b7ab760cf49f38c39
wu2000-03-31d1t05.flac:0de1244056dc35de9e7ea5aafe0036dd
wu2000-03-31d1t06.flac:8d3e70b7d0ddcb1e95b3ec18fc33b934
wu2000-03-31d1t07.flac:42c03cb566b13a4005bfb5427ae84f78
wu2000-03-31d1t08.flac:82dbc3ee7badfc2f5f68ffd17990ca8a
wu2000-03-31d1t09.flac:2c0f81555384c99e5a482efcbffb27cb
wu2000-03-31d2t01.flac:f62318de73957ab79285b76a1da42d8c
wu2000-03-31d2t02.flac:c2735b6378dbb06f31a28ab694f11502
wu2000-03-31d2t03.flac:42b45e76016477eed5d15a32d76d896b
wu2000-03-31d2t04.flac:a9c8f5a253dad2db44945ca53764078f
wu2000-03-31d2t05.flac:137fa5a2b8f89d1395dd1476ccfbd828
wu2000-03-31d2t06.flac:c264e74ce95cf2b7956ee5ead52a193e
wu2000-03-31d2t07.flac:efe9aa3d55458e40043142acf8a58d45
wu2000-03-31d2t08.flac:4572ce3ea97251de4f50df603c8c6300
wu2000-03-31d2t09.flac:aa609a960d04fc5e2fea4bbaee3e13f7
wu2000-03-31d3t01.flac:00d75f3dc0ce7d54f7898b55f32b9ff9
wu2000-03-31d3t02.flac:a4ba5cfcab0d65535be91daa581f163e
wu2000-03-31d3t03.flac:87bc35cf2ef99a19be339bf3b7dbc5d2
wu2000-03-31d3t04.flac:f31ddc28fa787efa9c6e4db8aa63d0c0
wu2000-03-31d3t05.flac:efe3d4b4a955c1a06108d73bb1ee9318


Shntool Output:

    length     expanded size   cdr  WAVE problems filename
     9:48.38      103812620    ---   --   ---xx   wu2000-03-31d1t01.flac
     5:46.72       61203788    ---   --   ---xx   wu2000-03-31d1t02.flac
     7:44.52       81971948    ---   --   ---xx   wu2000-03-31d1t03.flac
     6:24.72       67906988    ---   --   ---xx   wu2000-03-31d1t04.flac
     7:38.06       80805356    ---   --   ---xx   wu2000-03-31d1t05.flac
    13:39.60      144612764    ---   --   ---xx   wu2000-03-31d1t06.flac
     6:08.61       65058716    ---   --   ---xx   wu2000-03-31d1t07.flac
     6:09.12       65119868    ---   --   ---xx   wu2000-03-31d1t08.flac
     4:53.05       51697004    ---   --   ---xx   wu2000-03-31d1t09.flac
    11:31.37      121979468    ---   --   ---xx   wu2000-03-31d2t01.flac
     4:10.23       44154140    ---   --   ---xx   wu2000-03-31d2t02.flac
     5:47.34       61290812    ---   --   ---xx   wu2000-03-31d2t03.flac
    10:12.24      108013292    ---   --   ---xx   wu2000-03-31d2t04.flac
     5:14.10       55413164    ---   --   ---xx   wu2000-03-31d2t05.flac
     6:15.60       66291164    ---   --   ---xx   wu2000-03-31d2t06.flac
     9:17.12       98283068    ---   --   ---xx   wu2000-03-31d2t07.flac
     6:54.68       73189580    ---   --   ---xx   wu2000-03-31d2t08.flac
     5:58.32       63226508    ---   --   ---xx   wu2000-03-31d2t09.flac
     5:02.71       53439836    ---   --   ---xx   wu2000-03-31d3t01.flac
     4:26.65       47075324    ---   --   ---xx   wu2000-03-31d3t02.flac
     3:39.20       38678684    ---   --   ---xx   wu2000-03-31d3t03.flac
     9:04.21       96011036    ---   --   ---xx   wu2000-03-31d3t04.flac
     5:53.62       62415068    ---   --   ---xx   wu2000-03-31d3t05.flac
   161:43.17        1632.36 MB                    (totals for 23 files, 0.5395 overall compression ratio)





More information about the bittorrent mailing list