[bittorrent] Big Wu - 2001-06-09 - Festival of the Forks - Middleton, WI (FOB Schoeps)

Automated Mailer noreply-bt.e at etree.org
Sun Jul 1 09:33:33 MDT 2007


Band:           The Big Wu
Torrent Name:   Big Wu - 2001-06-09 - Festival of the Forks - Middleton, WI (FOB Schoeps)
Uploaded by:    CrazyED
DB Link:        http://db.etree.org/shninfo_detail.php?shnid=6925
Details:        http://bt.etree.org/details.php?id=507868

Contact the seeder at http://db.etree.org/CrazyED

If the link to this show does not work, it was probably removed for
being non-trade-friendly.

Description / text file:
-------------------------
The Big Wu
June 9, 2001
Festival of the Forks - Terrace Street Stage - Middleton, WI

Source: 	(FOB) Schoeps MK4V > KCY > VMS02ib > AD1000 > D8 @ 48kHz
		(pre: VMS @ +20db)
		by Don Becker & Matt Edlhuber (medlhuber at hotmail.com)

Location:	FOB @ SBD - 25' from stage clamped to sbd tent. 
	        
Conversion: 	Sony PCM-R500 > Audio Magic Presto II 
	    	Delta Di0 2496 > Soundforge 4.5 (48>44.1) > 
		cdwav > MKWact (SHNv3)
		(medlhuber at hotmail.com)
Disc 1
01: Texas Fireball
02: Oxygen >
03: Elani
04: Two Person Chair
05: Julie Be True
06: Red Sky >
07: Blue Sky >
08: Red Sky

Disc 2
01: Shoot the Moon >
02: Dancin'in the Streets >
03: Shoot the Moon
04: Dancing with Lula
05: Jazz 88 >
06: Ride Mighty High >
07: Jazz 88
08: Mighty Quinn 
~Encore~   
09: Rhode Island Red
10: 50:1

Edit notes:
Fades at the beg/end of set done in Soundforge.

d1t1 @ 00:27 I reduced the sound of a firecracker.
d1t1 @ 3:51 someone bumped the tent that the mics were fastened to
resulting in a thump which I reduced greatly.

-----------------------------------------------------------------------------

SHN > MKWACT > .wav > Flac Frontend 1.71 (level 8 w/ ID tags) by Matt Edlhuber 
6/30/2007
Origional MD5:

02fca3e7c1a1f10e52adebe3ad296147 *wu2001-06-09d1t01.shn
6c90f3c3a8c487e5fb1a9a05fcc6771d *wu2001-06-09d1t02.shn
4b5cec7733843bb09cdc82b3ca7ad7e1 *wu2001-06-09d1t03.shn
bec1de6ca59223837cf1f2cd919772e8 *wu2001-06-09d1t04.shn
53488335dcd851049cfc2e5d10295afe *wu2001-06-09d1t05.shn
687999ab841cac03e9c696b5aeaeac07 *wu2001-06-09d1t06.shn
cf4f5838fc35931d632a378905ebcbfc *wu2001-06-09d1t07.shn
f8f2369bb18d091dc9c2d16fcfe439d3 *wu2001-06-09d1t08.shn
40eb1fb1cbf1b887ad2ce74cc8beabe6 *wu2001-06-09d2t01.shn
8a20ef7b76100dcda6e35d70f7a3efdf *wu2001-06-09d2t02.shn
b9f5b6f092d94adf4fb490316ade676c *wu2001-06-09d2t03.shn
41648155598d17cc3f5d99b47d78d4b6 *wu2001-06-09d2t04.shn
1c6f76a827a2de6edf3dd063d33da3df *wu2001-06-09d2t05.shn
f357297aad1b4a694037ebab7a85f549 *wu2001-06-09d2t06.shn
2e626d18e3137d4dd4ff3cb6debd45b7 *wu2001-06-09d2t07.shn
4690a95f222b391b745573053a1dc0a1 *wu2001-06-09d2t08.shn
8e178c930e9da9dcd2002d20b26758a4 *wu2001-06-09d2t09.shn
297c8bb24dc8054b95c096a403c12362 *wu2001-06-09d2t10.shn

Flac Fingerprint:
bigwu2001-06-09d1t06.flac:144eba4575eb29af035ba3d09904c3c5
bigwu2001-06-09d1t07.flac:f768903b9a02f016281125d188d87ee7
bigwu2001-06-09d1t08.flac:7c9c2f505ef1ba4d9c691afa9514f1fc
bigwu2001-06-09d2t01.flac:17970eef64bbbf2d7621c2742421d73e
bigwu2001-06-09d2t02.flac:0be947ae52a28598aa29a90bae9b6312
bigwu2001-06-09d2t03.flac:ea4fca9ba52272a826577018f2c93173
bigwu2001-06-09d2t04.flac:a4a6f225416e5ffcd7eac8874beb7538
bigwu2001-06-09d2t05.flac:65e0f5dad4f701e7e2069d97a3e2d895
bigwu2001-06-09d2t06.flac:27a155fa0cde3055968a2140e2b79656
bigwu2001-06-09d2t07.flac:8fc5432ccc7a70a0692d0a19871ed47f
bigwu2001-06-09d2t08.flac:34c071f383f9fc133bed4966cadb5203
bigwu2001-06-09d2t09.flac:d167b56bece8853edc7b796939b492c8
bigwu2001-06-09d2t10.flac:3c3f3e86a065ecbc27dd47486ab1e842
bigwu2001-06-09d1t01.flac:0addac05850081f31b2b141934389e4d
bigwu2001-06-09d1t02.flac:f65d83826eaa48aa0b0d2c0f88464453
bigwu2001-06-09d1t03.flac:71b4a20d2a2f60516bd0ca074e001a98
bigwu2001-06-09d1t04.flac:511e43ad3acdd4d5bda797dd50e9b7bb
bigwu2001-06-09d1t05.flac:38c3c3081a5c964059a4ed15403c5f6f

Shntool Output:
    length     expanded size   cdr  WAVE problems filename
     9:48.58      103859660    ---   --   ---xx   bigwu2001-06-09d1t01.flac
    10:43.55      113554604    ---   --   ---xx   bigwu2001-06-09d1t02.flac
     5:03.48       53562140    ---   --   ---xx   bigwu2001-06-09d1t03.flac
     8:12.13       86819420    ---   --   ---xx   bigwu2001-06-09d1t04.flac
     5:49.55       61693004    ---   --   ---xx   bigwu2001-06-09d1t05.flac
     6:03.59       64172012    ---   --   ---xx   bigwu2001-06-09d1t06.flac
     6:13.60       65938364    ---   --   ---xx   bigwu2001-06-09d1t07.flac
     7:06.47       75256988    ---   --   ---xx   bigwu2001-06-09d1t08.flac
     9:42.50      102782444    ---   --   ---xx   bigwu2001-06-09d2t01.flac
     3:35.38       38015420    ---   --   ---xx   bigwu2001-06-09d2t02.flac
     3:26.08       36357260    ---   --   ---xx   bigwu2001-06-09d2t03.flac
     6:12.54       65747852    ---   --   ---xx   bigwu2001-06-09d2t04.flac
     2:51.27       30227948    ---   --   ---xx   bigwu2001-06-09d2t05.flac
     7:35.63       80410220    ---   --   ---xx   bigwu2001-06-09d2t06.flac
     1:56.41       20558876    ---   --   ---xx   bigwu2001-06-09d2t07.flac
    11:12.28      118606700    ---   --   ---xx   bigwu2001-06-09d2t08.flac
     5:11.46       54968636    ---   --   ---xx   bigwu2001-06-09d2t09.flac
     7:07.28       75388700    ---   --   ---xx   bigwu2001-06-09d2t10.flac
   117:54.28     1247920248 B                     (totals for 18 files, 0.5803 overall compression ratio)




More information about the bittorrent mailing list