[bittorrent] Grateful Dead - Merriweather Post Pav. Re-transfer of shnid=33702. New to circulation

Automated Mailer noreply-bt.e at etree.org
Sun Jul 30 18:57:21 MDT 2006


Band:           Grateful Dead
Torrent Name:   Grateful Dead - Merriweather Post Pav. Re-transfer of shnid=33702.  New to circulation
Uploaded by:    other3
DB Link:        
Details:        http://bt.etree.org/details.php?id=27636

Contact the seeder at http://db.etree.org/other3

If the link to this show does not work, it was probably removed for
being non-trade-friendly.

Description / text file:
-------------------------
The Grateful Dead
Merriweather Post Pavilion
6-30-1985

Re-transfer of shnid=<a href="http://db.etree.org/shninfo_detail.php?shnid=33702" target="33702">33702</a>

Source: unknown shotgun mics > Sony D6 > Maxell MX 90s (MC)

MC > Playback on Marantz PRD505 (azimuth adjusted) > Marantz Intergrated
Stereo Amp MP-68 > SBLive! > Sound Forge normalization > WAV > CDWave > WAVs > 
mkwAC > SHNs

This recording was done to capture as much as possable.
There were no tape flips requiring fast forwarding or 
rewinding during the actual recording. Side A of the first
tape was recorded then Side A of the second cassette.
Everything was then fast forwarded at the break.
Side B of the second cassette was recorded and then Side B
of the first cassette.  After Side B of the second cassette
ended I manually wound it past where Side A had end to be
able to have extra tape to record the encore.

Disks can be combined on longer media for extended play.

Disk 1

Set 1

01. Crowd/tuning
02. Half Step
03. C. C. Rider
04. Brown Eyed Women
05. Mama Tried
06. Mexicali Blues
07. Keep On Gorwin'
08. Big Railroad Blues
09. Looks Like Rain
10. Don't Ease Me In

Disk 2

Set 2

01. Crowd/tuning
02. Shakedown Street
03. Samson & Delilah (some sorta spike at 00:05)
04. Gimme Some Lovin'
05. He's Gone (tape change at end)
06. Cryptical Envelopment
07. Drums
08. Space
09. The Other One

Disk 3


01. Stella Blue
02. Around & Around (tape change at end)
03. Sugar Magnolia

Encore

04. U.S. Blues

MD5s

792204ee1ae9a21e9bb1653811e3c2ea *gd1985-06-30d3t04.shn
32d661104fad211d495044768fc39d47 *gd1985-06-30d1t02.shn
699b571f81af3db025b8040c91fa9150 *gd1985-06-30d1t03.shn
847ef043293020216000933f65ae3cc5 *gd1985-06-30d1t04.shn
1c88186021408d0ef1c57da7fedf3dcc *gd1985-06-30d1t05.shn
653149fe6fabb326f8bfd97d74c1929e *gd1985-06-30d1t06.shn
512de65e532ed7ddae00eb80af02507b *gd1985-06-30d1t07.shn
2e5293006ed5608fe71c1f09ed998b89 *gd1985-06-30d1t08.shn
d232139623aa3fe86057ba0c79a464cb *gd1985-06-30d1t09.shn
26ad0e536dac1dd18b6f0450b54026e4 *gd1985-06-30d1t10.shn
947f6ee5f72daa2e246a35bf9459ec09 *gd1985-06-30d2t01.shn
6aca949d5c77c78b30f808714ede5e7a *gd1985-06-30d2t02.shn
b4e40b77d5ce25a68f72c3ac3be252fb *gd1985-06-30d2t03.shn
9116622a4ed3c12209f5b4e59688ca73 *gd1985-06-30d2t04.shn
d20c267931e8e925522caf0c8ede8d33 *gd1985-06-30d2t05.shn
e886c609f936aa0df0ce6ebf84f4734c *gd1985-06-30d2t06.shn
2cf0385484a9723c7533dc5da033b508 *gd1985-06-30d2t07.shn
5c8c9f07b5f9b1f5369e2cc27911315c *gd1985-06-30d2t08.shn
85bccd6eb1ec56bde59f0b6ed6255236 *gd1985-06-30d2t09.shn
4806c8d4fb3881ef52f0ad2b9edd060d *gd1985-06-30d3t01.shn
69b2b7fba86482e0137e742d321ec477 *gd1985-06-30d3t02.shn
28bce700bcc107e67e92654e829cbc15 *gd1985-06-30d3t03.shn
be033af27fe38dc23dc10fe490310cdf *gd1985-06-30d1t01.shn


shntool

    length     expanded size   cdr  WAVE problems filename
     1:15.04       13239452    ---   --   ---xx   gd1985-06-30d1t01.shn
     7:43.53       81797900    ---   --   ---xx   gd1985-06-30d1t02.shn
     8:16.42       87593228    ---   --   ---xx   gd1985-06-30d1t03.shn
     7:46.59       82341212    ---   --   ---xx   gd1985-06-30d1t04.shn
     2:48.05       29647004    ---   --   ---xx   gd1985-06-30d1t05.shn
     7:06.28       75212300    ---   --   ---xx   gd1985-06-30d1t06.shn
     4:37.35       48945164    ---   --   ---xx   gd1985-06-30d1t07.shn
     4:21.32       46115708    ---   --   ---xx   gd1985-06-30d1t08.shn
     8:05.03       85561100    ---   --   ---xx   gd1985-06-30d1t09.shn
     3:01.12       31956668    ---   --   ---xx   gd1985-06-30d1t10.shn
     2:17.39       24258572    ---   --   ---xx   gd1985-06-30d2t01.shn
    13:39.29      144539852    ---   --   ---xx   gd1985-06-30d2t02.shn
    10:22.18      109763180    ---   --   ---xx   gd1985-06-30d2t03.shn
     5:37.49       59562092    ---   --   ---xx   gd1985-06-30d2t04.shn
    12:29.54      132250652    ---   --   ---xx   gd1985-06-30d2t05.shn
     1:55.62       20431868    ---   --   ---xx   gd1985-06-30d2t06.shn
    11:15.09      119091212    ---   --   ---xx   gd1985-06-30d2t07.shn
    11:22.07      120321308    ---   --   ---xx   gd1985-06-30d2t08.shn
     5:44.18       60723980    ---   --   ---xx   gd1985-06-30d2t09.shn
     9:15.41       97998476    ---   --   ---xx   gd1985-06-30d3t01.shn
     3:51.10       40771964    ---   --   ---xx   gd1985-06-30d3t02.shn
    10:58.26      116132396    ---   --   ---xx   gd1985-06-30d3t03.shn
     5:43.56       60636956    ---   --   ---xx   gd1985-06-30d3t04.shn
   159:34.16     1688892244 B                     (totals for 23 files, 0.6220 overall compression ratio)





More information about the bittorrent mailing list