[bittorrent] Galactic 7/29/06 Bele Chere Asheville, NC neumann 184 > v3

Automated Mailer noreply-bt.e at etree.org
Sun Jul 30 15:48:32 MDT 2006


Band:           Galactic
Torrent Name:   Galactic 7/29/06 Bele Chere Asheville,NC  neumann 184 > v3
Uploaded by:    datdork
DB Link:        http://db.etree.org/lookup_show.php?shows_key=328700
Details:        http://bt.etree.org/details.php?id=27627

Contact the seeder at http://db.etree.org/datdork

If the link to this show does not work, it was probably removed for
being non-trade-friendly.

Description / text file:
-------------------------
Galactic
07/29/06
Rock-n-Kiss Stage
Bele Chere Festival
Asheville,NC

source: Neumann km-184 (din @ 8') > Lunatec V3 > Nomad Jukebox 3
location: right corner of sbd cage about DFC 40'
transfer: JB3 > firewire > nomad explorer > wavelab 5.01b > cd wave > flac frontend (level 6)

taped and transferred by Gordon Wilson

disc one:

1. Intro
2. Crazyhorse Mongoose
3. ?
4. ?
5. Sympathy For The Devil *
6. Dirtfloorcracka *
7. Love Having You Around *
8. ?  ^
9. ?  ^
10. FEMA

disc two:

1. ?  ^
2. Baker's Dozen > ^
3. Stanton solo > 
4. Baker's Dozen ^
5. Slow Lazy Summer *
6. Ho Cake*
7. When the Levee Breaks

encore:
8. Tupelo Honey %
9. Wild Flower *
10. Lochloosa *
11. Licorice 
12. Manic Depression


* w/ JJ Grey of Mofro on vocals
% JJ Solo
^ w/ Art of The Gamble Brothers on sax
fades added at the beginning and end of set with wavelab 5.01b

shntool output:
    length     expanded size   cdr  WAVE problems filename
     0:49.18        8685980    ---   --   ---xx   galactic2006-07-29d1t01.flac
     7:08.30       75569804    ---   --   ---xx   galactic2006-07-29d1t02.flac
     5:51.66       62071676    ---   --   ---xx   galactic2006-07-29d1t03.flac
     6:44.13       71296220    ---   --   ---xx   galactic2006-07-29d1t04.flac
     7:03.55       74746604    ---   --   ---xx   galactic2006-07-29d1t05.flac
     4:27.52       47221148    ---   --   ---xx   galactic2006-07-29d1t06.flac
     5:30.16       58249676    ---   --   ---xx   galactic2006-07-29d1t07.flac
     8:11.15       86647724    ---   --   ---xx   galactic2006-07-29d1t08.flac
     8:37.29       91267052    ---   --   ---xx   galactic2006-07-29d1t09.flac
     5:58.35       63233564    ---   --   ---xx   galactic2006-07-29d1t10.flac
     7:42.18       81539180    ---   --   ---xx   galactic2006-07-29d2t01.flac
     4:52.46       51617036    ---   --   ---xx   galactic2006-07-29d2t02.flac
     3:59.62       42305468    ---   --   ---xx   galactic2006-07-29d2t03.flac
     1:47.10       18898364    ---   --   ---xx   galactic2006-07-29d2t04.flac
     4:51.70       51497084    ---   --   ---xx   galactic2006-07-29d2t05.flac
     6:49.34       72227612    ---   --   ---xx   galactic2006-07-29d2t06.flac
     6:56.13       73413020    ---   --   ---xx   galactic2006-07-29d2t07.flac
     5:41.21       60201836    ---   --   ---xx   galactic2006-07-29d2t08.flac
     5:22.39       56892572    ---   --   ---xx   galactic2006-07-29d2t09.flac
     6:51.14       72533372    ---   --   ---xx   galactic2006-07-29d2t10.flac
     5:56.02       62803148    ---   --   ---xx   galactic2006-07-29d2t11.flac
     7:44.70       82014284    ---   --   ---xx   galactic2006-07-29d2t12.flac
   128:57.53        1301.70 MB                    (totals for 22 files, 0.5098 overall compression ratio)




More information about the bittorrent mailing list