[bittorrent] Steep Canyon Rangers 7/28/06 Bele Chere Asheville, NC fob 184's > v3

Automated Mailer noreply-bt.e at etree.org
Sat Jul 29 21:55:37 MDT 2006


Band:           Other
Torrent Name:   Steep Canyon Rangers 7/28/06 Bele Chere Asheville,NC fob 184's > v3
Uploaded by:    datdork
DB Link:        http://db.etree.org/lookup_show.php?shows_key=328615
Details:        http://bt.etree.org/details.php?id=27592

Contact the seeder at http://db.etree.org/datdork

If the link to this show does not work, it was probably removed for
being non-trade-friendly.

Description / text file:
-------------------------
please hang on and help seed so I can up some more shows from bele chere.  no I didn't get mule ;)  I'll up this to the archive soon.


Steep Canyon Rangers
07/28/06
Battery Park Stage
Bele Chere Festival
Asheville,NC

source:   Neumann km-184 (din @ 6.5') > Lunatec V3 > Nomad Jukebox 3
location: FOB DFC 30'
transfer: JB3 > firewire > nomad explorer > wavelab 5.01b > cd wave > flac frontend (level 6)

taped and transfered by Gordon Wilson

This show was recorded with the permission of the band.
this is never to be sold!!
Help ensure live recordings remain easily accessible and FREE
by supporting the musicians and buying their studio releases etc.
For more information on the artist, tour dates, merch, and studio recordings:

www.steepcanyon.com


disc one:
1. Intro/tuning
2. Restless Nights 
3. Old Dracula
4. Sleepy Eyed John
5. I’ll Go Stepping Too 
6. Kuykendall
7. Yesterday's Blues 
8. Goodbye Bottle of Whiskey 
9. Oklahoma Stars
10. Standing In The Need Of Prayer
11. Bluegrass Blues
12. Big Cypoophus *
13. I Picked the Wrong Day to Stop Lovin' You *

disc two:
1. Waiting to Hear You Call my Name 
2. Back Up and Push 
3. The Ghost of Norma Jean
4. Instrumental
5. A Ramblin' Man is a Ramblin' Man 
6. Mr. Taylor's New Home 
7. I Can't Sit Down
8. Instrumental
9. If I Could Make a Living Loving Pretty woman
10. I'll Be Long Gone 

encore:
11. Feelin' Just a Little Like Dale 
12. One Dime At a Time
13. Orange Blossom Special

notes:
* it stormed very hard during these two tracks.  rain drops hitting the umbrella are audible.
fades added at the beginning and end of set with wavelab 5.01b
sector boundary's confirmed with shntool v2.0.3

shntool output:
    length     expanded size   cdr  WAVE problems filename
     1:04.24       11346092    ---   --   ---xx   scr2006-07-28d1t01.flac
     3:27.25       36573644    ---   --   ---xx   scr2006-07-28d1t02.flac
     3:38.25       38514044    ---   --   ---xx   scr2006-07-28d1t03.flac
     3:55.57       41588108    ---   --   ---xx   scr2006-07-28d1t04.flac
     3:47.07       40059308    ---   --   ---xx   scr2006-07-28d1t05.flac
     4:32.61       48124316    ---   --   ---xx   scr2006-07-28d1t06.flac
     3:28.00       36691244    ---   --   ---xx   scr2006-07-28d1t07.flac
     6:21.49       67323692    ---   --   ---xx   scr2006-07-28d1t08.flac
     4:23.36       46477916    ---   --   ---xx   scr2006-07-28d1t09.flac
     2:10.59       23070812    ---   --   ---xx   scr2006-07-28d1t10.flac
     3:39.15       38666924    ---   --   ---xx   scr2006-07-28d1t11.flac
     3:17.72       34920188    ---   --   ---xx   scr2006-07-28d1t12.flac
     3:14.73       34393340    ---   --   ---xx   scr2006-07-28d1t13.flac
     3:03.41       32377676    ---   --   ---xx   scr2006-07-28d2t01.flac
     2:35.66       27497276    ---   --   ---xx   scr2006-07-28d2t02.flac
     3:55.30       41524604    ---   --   ---xx   scr2006-07-28d2t03.flac
     6:11.25       65503244    ---   --   ---xx   scr2006-07-28d2t04.flac
     2:52.72       30510188    ---   --   ---xx   scr2006-07-28d2t05.flac
     4:19.48       45800540    ---   --   ---xx   scr2006-07-28d2t06.flac
     3:18.67       35084828    ---   --   ---xx   scr2006-07-28d2t07.flac
     7:10.27       75915548    ---   --   ---xx   scr2006-07-28d2t08.flac
     3:22.48       35745740    ---   --   ---xx   scr2006-07-28d2t09.flac
     4:40.54       49519052    ---   --   ---xx   scr2006-07-28d2t10.flac
     4:08.04       43756652    ---   --   ---xx   scr2006-07-28d2t11.flac
     2:42.36       28661516    ---   --   ---xx   scr2006-07-28d2t12.flac
     3:27.65       36667724    ---   --   ---xx   scr2006-07-28d2t13.flac
    98:51.36         997.84 MB                    (totals for 26 files, 0.5376 overall compression ratio)

ffp:
scr2006-07-28d1t01.flac:bbca7ae5296ff02913a91582db9a1eff
scr2006-07-28d1t02.flac:1e20437e18165340295dc31cae656e19
scr2006-07-28d1t03.flac:891f91335ba888e0d61acdf9bb08851a
scr2006-07-28d1t04.flac:580c2914736366d3af4051d73136c2ab
scr2006-07-28d1t05.flac:2fca54b640b2f586ede02f23bb0c0712
scr2006-07-28d1t06.flac:e4ccd979467463fcfeba675b837dfb19
scr2006-07-28d1t07.flac:9039dd07f2e034173d9837bfbbbe81c1
scr2006-07-28d1t08.flac:62aa2a5a32bfe6cccb7e5b1681c64011
scr2006-07-28d1t09.flac:fd71ac48904f0146819a3247fbe3f3e6
scr2006-07-28d1t10.flac:d2cff41c612b3b268d88979be529c60f
scr2006-07-28d1t11.flac:52ef4400c4fb649137234d7f6e1ab71b
scr2006-07-28d1t12.flac:89b0723380505a23af8e88f4dcf566d5
scr2006-07-28d1t13.flac:26786a5b48e39da923ac9d2bae363f1a
scr2006-07-28d2t01.flac:2b84ef4ffdbb4f82ed36f6159d1709f5
scr2006-07-28d2t02.flac:c776edd4e80a62cf5221cb191651afd3
scr2006-07-28d2t03.flac:5f0f4eec517a5b68be95209441854f57
scr2006-07-28d2t04.flac:ef4b557d2077b5679674ff7237d0b052
scr2006-07-28d2t05.flac:7f51a71ec70dfe020809d021368480fb
scr2006-07-28d2t06.flac:1ffa7f5a5f673f2680c2cd8339c306bb
scr2006-07-28d2t07.flac:7971338049b97edf3c6e50e33ef1a35d
scr2006-07-28d2t08.flac:a25a82c871489c8937f0becc0c2ed0bc
scr2006-07-28d2t09.flac:04fbc0c288988b46b036191e30a7381d
scr2006-07-28d2t10.flac:eb07cbe1c13c609c71f1923c6b1b999e
scr2006-07-28d2t11.flac:c18394e86dd9bf8c70b990c5a2a6271f
scr2006-07-28d2t12.flac:6345c899eff3f98c5819e68a542a0f6d
scr2006-07-28d2t13.flac:3b0aa96fca53be9fbeead725d1f01562





More information about the bittorrent mailing list