[bittorrent] Grateful Dead - Hershey Park - 6/28/1985 - 1st gen from master recorder, new to circulation.

Automated Mailer noreply-bt.e at etree.org
Fri Jul 28 15:34:16 MDT 2006


Band:           Grateful Dead
Torrent Name:   Grateful Dead - Hershey Park - 6/28/1985 - 1st gen from master recorder, new to circulation.
Uploaded by:    other3
DB Link:        
Details:        http://bt.etree.org/details.php?id=27542

Contact the seeder at http://db.etree.org/other3

If the link to this show does not work, it was probably removed for
being non-trade-friendly.

Description / text file:
-------------------------
The Grateful Dead
Hershey Park Stadium
Hershey, Pa.
06-28-1985

Sennheiser 4xx's > Marantz PMDxxx > MC. 
Playback on recording deck (Marantz PMDxxx) > Sony D6 > Maxell XL90s (1st gen).
1st (gen) > Playback on Marantz PRD505 (azimuth adjusted) > Marantz Intergrated
Stereo Amp MP-68 > SBLive! > Sound Forge normalization > WAV > CDWave > WAVs > 
mkwAC > SHNs.

Recorded by Jeff Hubbard. Transred & seeded by Charles Bandrofcheck

Disks can be combined on longer media for extended play

Disk 1

Set 1

01. Crowd/tuning
02. Cold, Rain & Snow
03. Promised Land
04. Ramble On Rose
05. Ain't Superstitious
06. Birdsong
07. Comes A Time
08. Deal

Disk 2

Set 2

01. Crowd/tuning
02. The Music Never Stopped
03. Just Like Tom Thumbs Blues
04. Estimated Prophet
05. Terrapin
06. Drums
07. Space
08. I Need A Miracle
09. Morning Dew

Disk 3

01. Throwing Stones
02. Not Fade Away

Encore

03. Keep Your Day Job


MD5s

16a6b2eb3364b3c414a24aa1469371f7 *gd1985-06-28d3t03.shn
05f1aa89a5d60921c3e30b87b2e1aeac *gd1985-06-28d1t02.shn
63a86fd166c35e63327bddd7c80f5144 *gd1985-06-28d1t03.shn
2565abae42f133b7baa3a9ca5203e0f3 *gd1985-06-28d1t04.shn
41b0fd4850ed432ab8cee3025ded7896 *gd1985-06-28d1t05.shn
c371e9800d243d8371323026c0b98744 *gd1985-06-28d1t06.shn
f7bb9e519e5f833ba9d72b36b45a638d *gd1985-06-28d1t07.shn
ade0e61386f50a8557587f522931d339 *gd1985-06-28d1t08.shn
9b8e36571027e313c6e3df9962a7a805 *gd1985-06-28d2t01.shn
e9b52a378e484fc93ae1f698fb21172f *gd1985-06-28d2t02.shn
b46cd7146b3b9f9378af742ab3a58e27 *gd1985-06-28d2t03.shn
acf5671b7446f91c50853fd5661d03bf *gd1985-06-28d2t04.shn
6885b5d32d58e0ada338606357ffb2c2 *gd1985-06-28d2t05.shn
1ce36eacf234b0afe54559ba52a9858d *gd1985-06-28d2t06.shn
668a384b0ee407028ec21c38c9b48abe *gd1985-06-28d2t07.shn
413a5e79ce87b02e66a1d9fdad38e3e3 *gd1985-06-28d2t08.shn
23e2139f03a3aa7826cadf1003e41e29 *gd1985-06-28d2t09.shn
a4da06484f32eb51dc1e2f8c1d2248bc *gd1985-06-28d3t01.shn
954d5ef17c5c62e6eb055667a74d692f *gd1985-06-28d3t02.shn
c66533fa59ef2327f6e8434586279864 *gd1985-06-28d1t01.shn


shntool

    length     expanded size   cdr  WAVE problems filename
     1:39.52       17585948    ---   --   ---xx   gd1985-06-28d1t01.shn
     5:44.35       60763964    ---   --   ---xx   gd1985-06-28d1t02.shn
     4:28.11       47301116    ---   --   ---xx   gd1985-06-28d1t03.shn
     7:00.36       74172716    ---   --   ---xx   gd1985-06-28d1t04.shn
     7:07.29       75391052    ---   --   ---xx   gd1985-06-28d1t05.shn
     7:05.66       75125276    ---   --   ---xx   gd1985-06-28d1t06.shn
     6:49.10       72171164    ---   --   ---xx   gd1985-06-28d1t07.shn
     6:53.59       72992012    ---   --   ---xx   gd1985-06-28d1t08.shn
     0:20.20        3575084    ---   --   ---xx   gd1985-06-28d2t01.shn
     9:10.37       97107068    ---   --   ---xx   gd1985-06-28d2t02.shn
     5:14.50       55507244    ---   --   ---xx   gd1985-06-28d2t03.shn
    11:56.74      126476492    ---   --   ---xx   gd1985-06-28d2t04.shn
    11:31.45      121998284    ---   --   ---xx   gd1985-06-28d2t05.shn
    11:35.48      122710940    ---   --   ---xx   gd1985-06-28d2t06.shn
     8:20.24       88256492    ---   --   ---xx   gd1985-06-28d2t07.shn
     4:14.11       44831516    ---   --   ---xx   gd1985-06-28d2t08.shn
    11:03.42      117052028    ---   --   ---xx   gd1985-06-28d2t09.shn
     9:11.57       97330508    ---   --   ---xx   gd1985-06-28d3t01.shn
     8:06.17       85770428    ---   --   ---xx   gd1985-06-28d3t02.shn
     4:31.33       47882060    ---   --   ---xx   gd1985-06-28d3t03.shn
   142:06.06     1504001392 B                     (totals for 20 files, 0.6510 overall compression ratio)





More information about the bittorrent mailing list