[bittorrent] Ekoostik Hookah 6-22-06 Cleveland OH House of Blues

Automated Mailer noreply-bt.e at etree.org
Tue Jul 25 19:33:28 MDT 2006


Band:           Ekoostik Hookah
Torrent Name:   Ekoostik Hookah 6-22-06 Cleveland OH House of Blues
Uploaded by:    wspmstm
DB Link:        
Details:        http://bt.etree.org/details.php?id=27465

Contact the seeder at http://db.etree.org/wspmstm

If the link to this show does not work, it was probably removed for
being non-trade-friendly.

Description / text file:
-------------------------
Ekoostik Hookah
House of Blues
Cleveland, Ohio
6/22/2006

Schoeps CCm4V'S>Sound Devices 722 24-96
FOB DFC KFC ZFC 24' FROM STAGE!
Taped by Z-Man      
Transferred & Seeded by Stacey Ochs

**16 Bit**

---Set I/ Disc 1---8:34 PM
1.TUNING/CROWD
2. A BETTER MAN 10:10            
3.WASHBOARD ANNIE> 7:33
4. SLIPJIG THROUGH THE POPPY FIELDS 15:36
5. LAZY RIVER 8:05
6. HARMONIC CONVERGENCE 6:52
7. OLD TRAIN? 6:30
8. RIVER MAN 9:05

---Set I Cont./ Disc 2---
1. BACKSEAT> 13:27
2. BACKWOODS ROSE 9:30
3. RALLEN RAIN 7:18

---10:08 PM---
---Set II---10:37 PM
4. Crowd/ Tuning
5. ECSTASY 13:15
6. VIPOR 19:43
7. CARIBBOU 7:03

---Set II Cont./ Disc 3---
1. SHAPE OF THINGS TO COME> 7:18
2. KEEPIN' TIME 10:55
3. FREEDOM FLYER 21:15
---11:53 PM---

---11:56 PM---Encore
4. SUN GOES DOWN 10:25
---12:06 AM---


FFP:
Ekoostik Hookah Cleveland 6-22-2006 D3 T4.flac:9bc0eebd7ae73f9543798807729391e1
Ekoostik Hookah Cleveland 6-22-2006 D1 T1.flac:78fd6bd19196a4675501bb9b315488e1
Ekoostik Hookah Cleveland 6-22-2006 D1 T2.flac:69a8876dd5f4d0a8726bec2d2450dfa5
Ekoostik Hookah Cleveland 6-22-2006 D1 T3.flac:19930f33bbe79b67d08c1d70453f99e5
Ekoostik Hookah Cleveland 6-22-2006 D1 T4.flac:a77705a67348b648be9219ffaabda1ae
Ekoostik Hookah Cleveland 6-22-2006 D1 T5.flac:4d3b50f1d31d79b93fb7f2c930605ed9
Ekoostik Hookah Cleveland 6-22-2006 D1 T6.flac:47e924b4386d6df9d2e091f7208a48e5
Ekoostik Hookah Cleveland 6-22-2006 D1 T7.flac:f37b51f9f91445f889ace681d1d5d31c
Ekoostik Hookah Cleveland 6-22-2006 D1 T8.flac:25c8156b9c827574065c14430024df24
Ekoostik Hookah Cleveland 6-22-2006 D2 T1.flac:dc70add36459ecaad47fdae232afa694
Ekoostik Hookah Cleveland 6-22-2006 D2 T2.flac:63b4b459b48ee8c94c38726b671f0445
Ekoostik Hookah Cleveland 6-22-2006 D2 T3.flac:09d94d60fa92b61a3b633f8c2229d877
Ekoostik Hookah Cleveland 6-22-2006 D2 T4.flac:d5925f92ba506fcc6b975a96177ac798
Ekoostik Hookah Cleveland 6-22-2006 D2 T5.flac:0308ec5c41a1f5a13e7d714511c49121
Ekoostik Hookah Cleveland 6-22-2006 D2 T6.flac:74c4488a8177b295e70e0d412e4b9928
Ekoostik Hookah Cleveland 6-22-2006 D2 T7.flac:d0dcf3a5a04b253d2133ec8f982143f8
Ekoostik Hookah Cleveland 6-22-2006 D3 T1.flac:f15b02f0677a85954563b813c3bd3b70
Ekoostik Hookah Cleveland 6-22-2006 D3 T2.flac:e84a1ae81333f065feb63fd59d3c60f9
Ekoostik Hookah Cleveland 6-22-2006 D3 T3.flac:4b3c9141c6aa1fd35ef04f18b7321eb0

SHN TOOL:

length     expanded size   cdr  WAVE problems filename
     0:29.06        5129756    ---   --   ---xx   Ekoostik Hookah Cleveland 6-22-2006 D1 T1.flac
     9:44.46      103125836    ---   --   ---xx   Ekoostik Hookah Cleveland 6-22-2006 D1 T2.flac
     7:28.24       79083692    ---   --   ---xx   Ekoostik Hookah Cleveland 6-22-2006 D1 T3.flac
    15:41.54      166119452    ---   --   ---xx   Ekoostik Hookah Cleveland 6-22-2006 D1 T4.flac
     8:11.41       86708876    ---   --   ---xx   Ekoostik Hookah Cleveland 6-22-2006 D1 T5.flac
     6:45.39       71533772    ---   --   ---xx   Ekoostik Hookah Cleveland 6-22-2006 D1 T6.flac
     6:29.37       68706668    ---   --   ---xx   Ekoostik Hookah Cleveland 6-22-2006 D1 T7.flac
     9:12.33       97450460    ---   --   ---xx   Ekoostik Hookah Cleveland 6-22-2006 D1 T8.flac
    13:18.66      140922476    ---   --   ---xx   Ekoostik Hookah Cleveland 6-22-2006 D2 T1.flac
     9:30.39      100639772    ---   --   ---xx   Ekoostik Hookah Cleveland 6-22-2006 D2 T2.flac
     7:14.72       76726924    -b-   --   ---xx   Ekoostik Hookah Cleveland 6-22-2006 D2 T3.flac
     0:48.37        8554268    ---   --   ---xx   Ekoostik Hookah Cleveland 6-22-2006 D2 T4.flac
    11:08.74      118009292    ---   --   ---xx   Ekoostik Hookah Cleveland 6-22-2006 D2 T5.flac
    19:44.64      209008172    ---   --   ---xx   Ekoostik Hookah Cleveland 6-22-2006 D2 T6.flac
     5:59.25       63386444    ---   --   ---xx   Ekoostik Hookah Cleveland 6-22-2006 D2 T7.flac
     7:25.13       78528620    ---   --   ---xx   Ekoostik Hookah Cleveland 6-22-2006 D3 T1.flac
    11:06.40      117576524    ---   --   ---xx   Ekoostik Hookah Cleveland 6-22-2006 D3 T2.flac
    21:55.00      231966044    ---   --   ---xx   Ekoostik Hookah Cleveland 6-22-2006 D3 T3.flac
    10:11.72      107948960    -b-   --   ---xx   Ekoostik Hookah Cleveland 6-22-2006 D3 T4.flac
   182:27.32     1931126008 B                     (totals for 19 files, 0.5380 overall compression ratio)







More information about the bittorrent mailing list