[bittorrent] Backyard Tire Fire 6-23-06 Malibu, CA

Automated Mailer noreply-bt.e at etree.org
Mon Jul 24 18:41:59 MDT 2006


Band:           Other
Torrent Name:   Backyard Tire Fire 6-23-06 Malibu, CA
Uploaded by:    wspmstm
DB Link:        
Details:        http://bt.etree.org/details.php?id=27440

Contact the seeder at http://db.etree.org/wspmstm

If the link to this show does not work, it was probably removed for
being non-trade-friendly.

Description / text file:
-------------------------
Backyard Tire Fire
Malibu Inn
Malibu, CA
6-23-06

Source: Neumann ak40 > lc3 > km100>SD 722 @ (24/96)-- 16 bit
Transfer: 722> Cd Wave> Wavelab 5.0 (Fades, dither)
Location: FOB/DFC/DIN/25' from stage
Taped & Transferred by: Stacey Ochs

1.  Tuning
2.  Tryin' to Get Paid
3.  
4.  New Tune
5.  
6.  
7.  Spinnin' Around
8.  
9.  Ice Cream Truck
10. Believe
11. Honey to the Bee
12. 
13. 
14. 
15.
16.     *
17.     *
18. 
19.
20. Time To Go

E: L.A.**

www.backyardtirefire.com

* PA feedback during song
** Neil Young cover-- accidentally erased-- not included in this copy

Thanks to Frales for the use of the rig!
---------------------------------------------------------
FFP:
btf t20.flac:17fe14e75912ede255cdf720f7ee116a
btf t1.flac:bce43d0d555d7d64b30740077471f993
btf t2.flac:5dbc4f0954ae835b0dd2039da3c523c1
btf t3.flac:06a33d612dc0695b326ca09dd7966053
btf t4.flac:fa77a96f04e9b8d130b3ed363d540dd0
btf t5.flac:a89ff22c2379169e8a9681971880eeb0
btf t6.flac:bd7764d0221d25ded1bdea79e1c934cc
btf t7.flac:2c6c2ee2b8cbb787ac04e6ce9618925d
btf t8.flac:44984ab40217f7868b1608e3772be11f
btf t9.flac:bf9ca8ce136a565a076489fef234c4c6
btf t10.flac:b1ff51c2994f4e24b127a562f3c3f3d6
btf t11.flac:ce31f5f5947998d189f17c8655308f29
btf t12.flac:3762161065b12d42b1577b69c341d99f
btf t13.flac:15f9bf0e7856ca612fafa883a2cca7af
btf t14.flac:dd227130b2bd1097bbbeb0609d96a6b9
btf t15.flac:de1375eaed46b0d1a6850583eb9ce4a8
btf t16.flac:4cec5247c6c6beb069b195f2f461065c
btf t17.flac:c61b08890b252a9cee7b675bcce74643
btf t18.flac:aa32fbf26dbab8def41819e27d971d9d
btf t19.flac:77c65b55f652e8b8f55dc808b60bdd6a

shn tool:
    length     expanded size   cdr  WAVE problems filename
     0:20.46        3636240    -b-   --   ---xx   btf t1.flac
     2:50.42       30086832    -b-   --   ---xx   btf t10.flac
     2:30.48       26572944    -b-   --   ---xx   btf t11.flac
     5:31.09       58409616    -b-   --   ---xx   btf t12.flac
     3:05.34       32714016    -b-   --   ---xx   btf t13.flac
     2:21.61       25015920    -b-   --   ---xx   btf t14.flac
     5:05.41       53898480    -b-   --   ---xx   btf t15.flac
     3:48.66       40374480    -b-   --   ---xx   btf t16.flac
     3:26.68       36498384    -b-   --   ---xx   btf t17.flac
     4:58.71       52733496    -b-   --   ---xx   btf t18.flac
     6:48.65       72124128    -b-   --   ---xx   btf t19.flac
     3:27.70       36679488    -b-   --   ---xx   btf t2.flac
     6:54.27       73093152    -b-   --   ---xx   btf t20.flac
     4:08.65       43900128    -b-   --   ---xx   btf t3.flac
     4:27.31       47171760    -b-   --   ---xx   btf t4.flac
     2:31.59       26775216    -b-   --   ---xx   btf t5.flac
     3:28.70       36855888    -b-   --   ---xx   btf t6.flac
     2:20.73       24867744    -b-   --   ---xx   btf t7.flac
     1:55.26       20347200    -b-   --   ---xx   btf t8.flac
     2:00.53       21292704    -b-   --   ---xx   btf t9.flac
    72:05.50      763047816 B                     (totals for 20 files, 0.




More information about the bittorrent mailing list