[bittorrent] GD 7/7/89 JFK Stadium, Philadelphia, PA [SBD] **Daily fix - seamless**

Automated Mailer noreply-bt.e at etree.org
Mon Jul 17 06:44:58 MDT 2006


Band:           Grateful Dead
Torrent Name:   GD 7/7/89 JFK Stadium, Philadelphia, PA [SBD] **Daily fix - seamless**
Uploaded by:    btet
DB Link:        
Details:        http://bt.etree.org/details.php?id=27208

Contact the seeder at http://db.etree.org/btet

If the link to this show does not work, it was probably removed for
being non-trade-friendly.

Description / text file:
-------------------------
Grateful Dead
7/7/89
J.F.K. Stadium 
Philadephia, PA
------------------------------------------------------------------------------------
Fix of shnid 7855

The transition between CDs 2 and 3 were made seamless.  The overlap between the 2 had been faded out and then back in, so I had to do a reverse fade on the end of CD2 and beginning of CD 3.  The volumes of preselected splice points were matched, the overlap between them deleted, then through careful listening (using the background crowd noise as a constant) I further tweaked the volume till I had it as close to the original as I thought possible.  It's pretty darn indistinguishable.  Shntool was used to clean up the SBEs and the shn files converted to flac.

Overlapping fade tracks were added to the end of CD 2 and the beginning of CD 3 for those wishing to burn to CD.  For seamless playback simply remove the fade tracks.

Bill Tetzeli (btet at adelphia.net)
7:56 AM 4/18/2006
------------------------------------------------------------------------------------
Source:(Healy Mix) SBD>MC>DAT>CDR>EAC>SHN(WAV>FLAC)

 Set 1
 CD 1
1.Hell In A Bucket, 
2.Iko Iko, 
3.Little Red Rooster, 
4.Ramble On Rose, 
5.Memphis Blues, 
6.Loser, 
7.Let It Grow-> 
8.Blow Away

 Set 2
 CD 2
1.Box Of Rain,
2.Scarlet Begonias->
3.Fire On The Mountain,
4.Estimated Prophet->
5.Standing On The Moon->
6.Drumz->
6fade. (fade out)

 Set 2 cont.
 CD 3
1fade. (fade in)
1.Space->
2.The Other One->
3.Wharf Rat->
4.Turn On Your Lovelight.
5.E:Knockin' On Heaven's Door

Flaws: digital static D1t1 @ 0:17 in tunning before Bucket

Shn conversion done by Tim Wiley 2/27/02 twiley69 at hotmail.com
I used EAC in secure mode to extract all tracks at 100%
no reported errors

Many thanks to Paul B. for the cds. 

MD5:

3152ec90c3faa0a07322ac57bb472b04 *gd89-07-07d1t01.flac
c7d44515cc830ad5c217ac5bccbf8195 *gd89-07-07d1t02.flac
450f74d237c2ea738850c9ca7593324f *gd89-07-07d1t03.flac
7d3e3a96cf8f309d8af1065d55f2d9ba *gd89-07-07d1t04.flac
3b3e8c72011b63c292a57ffbf8cfeebb *gd89-07-07d1t05.flac
1afed1a42eb6fe0cad556b86aebbeb3b *gd89-07-07d1t06.flac
268b3f6aef839013f5754a6aaf6f1559 *gd89-07-07d1t07.flac
c3a7e3354510adc5847a242af602dd44 *gd89-07-07d1t08.flac
ee414925dbe56081462d01d961fc7013 *gd89-07-07d2t01.flac
d36fa359a5693e2ebfce2a611ee1c573 *gd89-07-07d2t02.flac
a27f3857d6057c979430c1ff154cb300 *gd89-07-07d2t03.flac
763f913eebb683e7fb72133654e94513 *gd89-07-07d2t04.flac
fe66c0aef4b0c6c1ec0fa50da5b36932 *gd89-07-07d2t05.flac
ae9bff519eefd0a168e01093a0251af2 *gd89-07-07d2t06.flac
e68e6a5da5e05e0caf1185822df2951b *gd89-07-07d2t06fade.flac
6c2808227609c77d27b0c9692f14f4f3 *gd89-07-07d3t01fade.flac
98be9e59c00e9a36e17d4799abb41be6 *gd89-07-07d3t01.flac
cd79473d52643131332a9588efa40b5c *gd89-07-07d3t02.flac
d0af2d12529ec380ed410f83bfda835f *gd89-07-07d3t03.flac
73760dc5cd5a6287e58dc852982c864c *gd89-07-07d3t04.flac
75a748a653f3cac09e93bfd7af5a1af5 *gd89-07-07d3t05.flac


Flac fingerprint:

gd89-07-07d1t01.flac:49f79f6ae1aff0f03936181084dcc639
gd89-07-07d1t02.flac:50a2834e0eabf7aba3a882bb62f4b464
gd89-07-07d1t03.flac:9a6dd461a10cf076afd9f6f92e79d63c
gd89-07-07d1t04.flac:c0f8f2ef212a5cf276e4be2291de8c08
gd89-07-07d1t05.flac:8b175be48cbd96376bdce62ccbc0a892
gd89-07-07d1t06.flac:f9833bb927c677b2615718060c3b9166
gd89-07-07d1t07.flac:13cca7cacc1231c3b30bb7f0a3c9ac4e
gd89-07-07d1t08.flac:4a9edf042eb85532fc7cfc97eb7aca9d
gd89-07-07d2t01.flac:3405d9463e217d6af05c7cba1d42e920
gd89-07-07d2t02.flac:a9c8196660718ba5b7805d918f55abab
gd89-07-07d2t03.flac:3441a30cbf15040183f1bb5127223068
gd89-07-07d2t04.flac:6343429767c42c56f49e20a0870f3706
gd89-07-07d2t05.flac:18ca4b2c45abc39e74dd2efc14a484e7
gd89-07-07d2t06.flac:8822fe6b3101101900658a4eeb86d6d6
gd89-07-07d3t01.flac:45b9d0a71be4f6bd8c1cae5dfa0efa20
gd89-07-07d3t02.flac:f2c3d4e5f3009af42b8037c45295abbf
gd89-07-07d3t03.flac:7a46f64b2262c9e04b281e164f9e8ecf
gd89-07-07d3t04.flac:8d3a3c8afb927a0797cd15eee89fa7a3
gd89-07-07d3t05.flac:353c96aa2b3b56bb46043649e6b0d4ee
gd89-07-07d2t06fade.flac:7fca8ca6651c7a21ed39cff12206d918
gd89-07-07d3t01fade.flac:f984ac3bb50c552df73af8c36835a861


shntool:

    length     expanded size   cdr  WAVE problems filename
     7:48.69       82717532    ---   --   ---xx   gd89-07-07d1t01.flac
     7:42.40       81590924    ---   --   ---xx   gd89-07-07d1t02.flac
     9:17.36       98339516    ---   --   ---xx   gd89-07-07d1t03.flac
     7:30.01       79382396    ---   --   ---xx   gd89-07-07d1t04.flac
     9:07.38       96580220    ---   --   ---xx   gd89-07-07d1t05.flac
     7:19.37       77526668    ---   --   ---xx   gd89-07-07d1t06.flac
    12:34.74      133179692    ---   --   ---xx   gd89-07-07d1t07.flac
    12:30.66      132455276    ---   --   ---xx   gd89-07-07d1t08.flac
     6:56.03       73389500    ---   --   ---xx   gd89-07-07d2t01.flac
    10:14.00      108309644    ---   --   ---xx   gd89-07-07d2t02.flac
    13:26.00      142178444    ---   --   ---xx   gd89-07-07d2t03.flac
     9:15.00       97902044    ---   --   ---xx   gd89-07-07d2t04.flac
     8:32.74       90490892    ---   --   ---xx   gd89-07-07d2t05.flac
    10:10.46      107712236    ---   --   ---xx   gd89-07-07d2t06.flac
     0:19.68        3511580    ---   --   ---xx   gd89-07-07d2t06fade.flac
     9:21.19       99005132    ---   --   ---xx   gd89-07-07d3t01.flac
     0:19.08        3370460    ---   --   ---xx   gd89-07-07d3t01fade.flac
     8:02.00       85024844    ---   --   ---xx   gd89-07-07d3t02.flac
    10:36.74      112364492    ---   --   ---xx   gd89-07-07d3t03.flac
     9:53.01      104607596    ---   --   ---xx   gd89-07-07d3t04.flac
     8:45.57       92744108    ---   --   ---xx   gd89-07-07d3t05.flac
   179:44.36     1902383196 B                     (totals for 21 files, 0.5986 overall compression ratio)




More information about the bittorrent mailing list