[bittorrent] GD, Providence, 09-09-1987, Aud New Source

Automated Mailer noreply-bt.e at etree.org
Sun Jul 16 09:11:22 MDT 2006


Band:           Grateful Dead
Torrent Name:   GD, Providence, 09-09-1987, Aud New Source
Uploaded by:    nfagdtrfb
DB Link:        
Details:        http://bt.etree.org/details.php?id=27177

Contact the seeder at http://db.etree.org/nfagdtrfb

If the link to this show does not work, it was probably removed for
being non-trade-friendly.

Description / text file:
-------------------------
GRATEFUL DEAD 
Civic Center 
Providence RI 
09-09-1987 

Disc One - Set One (59:56) 

01 crowd & tuning 
02 Hey Pocky Way 
03 Jack Straw > 
04 West LA Fadeaway 
05 When I Paint My Masterpiece 
06 Friend Of The Devil 
07 Cassidy 
08 Althea 
09 Greatest Story Ever Told > 
10 Medley: Devil With The Blue Dress On > 
   Good Golly Miss Molly > Devil With The Blue Dress On 

Disc Two - Set Two & Encore (76:44) 

01 crowd & tuning 
02 China Cat Sunflower > 
03 I Know You Rider > 
04 Playing In The Band > 
05 China Doll > 
06 Drums > 
07 Space > 
08 The Wheel > 
09 Gimme Some Lovin' > 
10 Throwing Stones > 
11 Not Fade Away 
-- encore -- 
12 Not Fade Away 
13 The Mighty Quinn 

Source: AUD, Nakamichi CM-300's with CP-4 shotgun capsules > 
Sony TC-D5M > Maxell MX-90 cassettes, with no Dolby. Set up 
in taper's section, mics on stand aprx 7-1/2 feet high. 

Transfer: MAC > Sony TC-D5M (no Dolby) > Marantz CDR-500 > 
EAC > Soundforge > CD-Wave > TLH v.1.0.0.72 (for SBE-OK, 
FLAC compression & checksums) > FLAC > bt.etree July 2006. 

Notes: The "Nak-300's > Sony D5" source from LMA was used 
for patching. The patches are located at 0:02 thru 0:10 of 
The Wheel, and 8:30 of Not Fade Away thru 0:12 of Not Fade 
Away Reprise (mostly crowd noise). Soundforge was used for 
the patches and to make fades. Taped and transferred by 
Andrew F.	      ......ENJOY! 


MD-5 

202202dc72dbddc86d309cc83c492ca0 *gd1987-09-09d1t01.flac 
67ed53209ea34c05df83c010d5e85686 *gd1987-09-09d1t02.flac 
e64f4d07922543fd6d09a4c2bc00fe1c *gd1987-09-09d1t03.flac 
56067b1423b7a00230b6f9d827ff1d4b *gd1987-09-09d1t04.flac 
12f4eff95ea6c5264cb1124d2298ad8f *gd1987-09-09d1t05.flac 
f2fefa9559ce4f06f5b446e46bca13fd *gd1987-09-09d1t06.flac 
8c96f8891a4cf4003c17a9ee203fe607 *gd1987-09-09d1t07.flac 
7cc6018c641af8db5195afc67b9daf3b *gd1987-09-09d1t08.flac 
e263b9861101e20cbf6c25abc9a8ecc5 *gd1987-09-09d1t09.flac 
f616e2a1f984c8082276b5b32d218f64 *gd1987-09-09d1t10.flac 
de7650fdbb497661dd47776f2ad9294e *gd1987-09-09d2t01.flac 
b07e124f2d77b19a00f5026296cbd03a *gd1987-09-09d2t02.flac 
7870b7a9d22ef4c2ed49534d79a92424 *gd1987-09-09d2t03.flac 
3115624221dd81a8a3f8013ce927234e *gd1987-09-09d2t04.flac 
ada896d45fa774bb29796f3c33bf8ffd *gd1987-09-09d2t05.flac 
a6481262d90572bfa0d664963b576786 *gd1987-09-09d2t06.flac 
9e75513dd03e6d74808a52ba0cea3a1f *gd1987-09-09d2t07.flac 
46fa4537ea701df6efad96b7fd61b2d7 *gd1987-09-09d2t08.flac 
6216979a32509d5934a23e2f1e73a27c *gd1987-09-09d2t09.flac 
108447de9feacf9eb89bbefedc382afc *gd1987-09-09d2t10.flac 
906858a1512e843aabb5409a07e19e6a *gd1987-09-09d2t11.flac 
d1ee5eebabb26172ef232f5dbe617316 *gd1987-09-09d2t12.flac 
5f34e15dcdcf33d10d018c785600a618 *gd1987-09-09d2t13.flac 

FFP 

gd1987-09-09d1t01.flac:2e6768a2db4dd53a909824d181bacecc 
gd1987-09-09d1t02.flac:982ee9c17513ad8e4cdf79ae387ab422 
gd1987-09-09d1t03.flac:66eddbda7a2984328442dcebc84b7e5b 
gd1987-09-09d1t04.flac:397735966b76a845fcd796651b5a771f 
gd1987-09-09d1t05.flac:b246c38aeed3a27dda27d854a7f561df 
gd1987-09-09d1t06.flac:4c76bcdbdcc03ae5b312cfba8d20cb55 
gd1987-09-09d1t07.flac:a2d6a9b88ac9d19b84d99bf3836ccb74 
gd1987-09-09d1t08.flac:ad34745c012175095dac1fdc16ba12c3 
gd1987-09-09d1t09.flac:5d22a7d37a74b386cab54c231c552172 
gd1987-09-09d1t10.flac:1c92b437b2d341bf92109e2d55c12ea0 
gd1987-09-09d2t01.flac:c61450db9c5ae6d12c388bce16624bb3 
gd1987-09-09d2t02.flac:00650b21611f7ed9882878188f58096a 
gd1987-09-09d2t03.flac:6a4107d0c6c19c756be93cfb7b84a447 
gd1987-09-09d2t04.flac:8274118d52bbe70175ae5b88de285cd8 
gd1987-09-09d2t05.flac:6076939a6932b8bddf9ab0a616d53045 
gd1987-09-09d2t06.flac:c9b2a53cad92207d7a1dbef596393701 
gd1987-09-09d2t07.flac:47198b17629032fa812c7900b51ccb5a 
gd1987-09-09d2t08.flac:c3131e94e4def38bad5dbcb72a3daeb1 
gd1987-09-09d2t09.flac:0110c3c20ebe81cc06534127e84a99b8 
gd1987-09-09d2t10.flac:19365219cc1267d476e4ca7d1148cf72 
gd1987-09-09d2t11.flac:e4323e863bc8696c462d50d191022a25 
gd1987-09-09d2t12.flac:311db7de7d952fa1eefe0a6d9d526bda 
gd1987-09-09d2t13.flac:6f6ef7ae790c99647b165fcca9b373c9 

SHNTOOL 

    length     expanded size   cdr  WAVE problems filename 
     2:15.49       23929292    ---   --   ---xx   gd1987-09-09d1t01.flac 
     4:53.24       51741692    ---   --   ---xx   gd1987-09-09d1t02.flac 
     6:13.67       65954828    ---   --   ---xx   gd1987-09-09d1t03.flac 
     8:55.57       94508108    ---   --   ---xx   gd1987-09-09d1t04.flac 
     4:46.51       50570396    ---   --   ---xx   gd1987-09-09d1t05.flac 
     9:26.50       99960044    ---   --   ---xx   gd1987-09-09d1t06.flac 
     6:17.25       66561644    ---   --   ---xx   gd1987-09-09d1t07.flac 
     8:47.60       93103964    ---   --   ---xx   gd1987-09-09d1t08.flac 
     3:51.40       40842524    ---   --   ---xx   gd1987-09-09d1t09.flac 
     4:27.59       47237612    ---   --   ---xx   gd1987-09-09d1t10.flac 
     2:13.27       23524748    ---   --   ---xx   gd1987-09-09d2t01.flac 
     5:25.66       57485276    ---   --   ---xx   gd1987-09-09d2t02.flac 
     4:52.26       51569996    ---   --   ---xx   gd1987-09-09d2t03.flac 
     9:21.61       99103916    ---   --   ---xx   gd1987-09-09d2t04.flac 
     6:51.03       72507500    ---   --   ---xx   gd1987-09-09d2t05.flac 
     6:35.29       69746252    ---   --   ---xx   gd1987-09-09d2t06.flac 
     6:31.32       69047708    ---   --   ---xx   gd1987-09-09d2t07.flac 
     5:32.59       58703612    ---   --   ---xx   gd1987-09-09d2t08.flac 
     4:28.13       47305820    ---   --   ---xx   gd1987-09-09d2t09.flac 
     8:57.48       94839740    ---   --   ---xx   gd1987-09-09d2t10.flac 
     9:53.32      104680508    ---   --   ---xx   gd1987-09-09d2t11.flac 
     1:29.32       15774908    ---   --   ---xx   gd1987-09-09d2t12.flac 
     4:31.61       47947916    ---   --   ---xx   gd1987-09-09d2t13.flac 
   136:40.71     1446648004 B                     (totals for 23 files, 0.6395 overall compression ratio) 

There were no sector boundary errors. 




More information about the bittorrent mailing list