[bittorrent] Tea Leaf Green - 2006-07-14, Charlottesville Pavilion, Charlottesville, VA

Automated Mailer noreply-bt.e at etree.org
Sat Jul 15 13:30:18 MDT 2006


Band:           Tea Leaf Green
Torrent Name:   Tea Leaf Green - 2006-07-14, Charlottesville Pavilion, Charlottesville, VA
Uploaded by:    dueling
DB Link:        
Details:        http://bt.etree.org/details.php?id=27153

Contact the seeder at http://db.etree.org/dueling

If the link to this show does not work, it was probably removed for
being non-trade-friendly.

Description / text file:
-------------------------
Tea Leaf Green
Charlottesville Pavilion
Charlottesville, VA
7/14/06


Source: (fob/dfc/ortf) Schoeps CCM4v's > Lunatec V3 > Tascam HD-P2 (24/96)

Conversion:  Wavelab 5 (16/44.1 w/UV22 HR) > CDWave > FLAC Frontend (level 6) > flac
Taped, converted and seeded by Graham Munda (dueling at magpage.com)


Disc 1

01) Morning Sun
02) If It Wasn't for the Money
03) Papa's in the Backroom
04) I've Got a Feeling*
05) Faced with Love
06) Taught to be Proud
07) Earth and Sky
08) Incandescent Devil

Disc 2

(set II)
01) These Two Chairs
02) Franz Hanzerbeak
03) Freedom**
04) Kali-Yuga
05) Bouncin' Betty
06) Moonshine
07) The Garden (Part III)
(encore)
08) No Blanket
09) Gasaholic


Notes: 
*Beatles cover
**w/ Ben Reade from Calf Mountain Jam on guitar



*******************flac fingerprint*********************
tlg2006-07-14d1t01.flac:14d06eb82bda2ecf61da4096988b4336
tlg2006-07-14d1t02.flac:181ef824992cdcf934de9b3e6743dec4
tlg2006-07-14d1t03.flac:fb6674a8b9a7ba533a9eccc71306c979
tlg2006-07-14d1t04.flac:82b017d2741853b060af9576fddd5a1d
tlg2006-07-14d1t05.flac:4529c35a3350905a33a386179f025f57
tlg2006-07-14d1t06.flac:0ae53dddff337b8ace6529431a24be87
tlg2006-07-14d1t07.flac:e479b906cc66035a232528758247919f
tlg2006-07-14d1t08.flac:42bff4f044814995d5ab5bbac9782621
tlg2006-07-14d2t01.flac:7d3ee6fb06a2f374885b58c81aa495c4
tlg2006-07-14d2t02.flac:0fe052665785fe220b154ebe0553eeba
tlg2006-07-14d2t03.flac:efeba707b9982f60a234eebcbf155046
tlg2006-07-14d2t04.flac:4c3a9578b5bb5dff8c0d7d9f015a92e6
tlg2006-07-14d2t05.flac:027f027ae142fd6a4fada4ad0c5b296d
tlg2006-07-14d2t06.flac:50c64634f1c99d8013c8199a2bdf4f2f
tlg2006-07-14d2t07.flac:5eee949fa6b9f4c7097c74cdf2cbde42
tlg2006-07-14d2t08.flac:5feec4068703bffb25585ee86a80f3cb
tlg2006-07-14d2t09.flac:0c7a7096ae997172d55ac34cbf8fea2c

*******************Shntool Output***********************
    length     expanded size   cdr  WAVE problems filename
     6:35.00       69678044    ---   --   ---xx   tlg2006-07-14d1t01.flac
     5:24.57       57287708    ---   --   ---xx   tlg2006-07-14d1t02.flac
     7:12.47       76315388    ---   --   ---xx   tlg2006-07-14d1t03.flac
     5:55.13       62652620    ---   --   ---xx   tlg2006-07-14d1t04.flac
     4:42.09       49766012    ---   --   ---xx   tlg2006-07-14d1t05.flac
     7:21.31       77865356    ---   --   ---xx   tlg2006-07-14d1t06.flac
     5:23.43       57078380    ---   --   ---xx   tlg2006-07-14d1t07.flac
     6:05.48       64498940    ---   --   ---xx   tlg2006-07-14d1t08.flac
     4:41.49       49683692    ---   --   ---xx   tlg2006-07-14d2t01.flac
     9:49.57      104033708    ---   --   ---xx   tlg2006-07-14d2t02.flac
     8:02.39       85116572    ---   --   ---xx   tlg2006-07-14d2t03.flac
    11:08.67      117992828    ---   --   ---xx   tlg2006-07-14d2t04.flac
     8:05.29       85622252    ---   --   ---xx   tlg2006-07-14d2t05.flac
     4:07.25       43629644    ---   --   ---xx   tlg2006-07-14d2t06.flac
     6:40.51       70679996    ---   --   ---xx   tlg2006-07-14d2t07.flac
     4:06.64       43544972    ---   --   ---xx   tlg2006-07-14d2t08.flac
    12:04.50      127831244    ---   --   ---xx   tlg2006-07-14d2t09.flac
   117:28.04        1185.68 MB                    (totals for 17 files, 0.5861 overall compression ratio)



More information about the bittorrent mailing list