[bittorrent] GD 12/28/88 Oakland Coliseum Arena, Oakland, CA **Daily fix - seamless**

Automated Mailer noreply-bt.e at etree.org
Fri Jul 14 14:55:03 MDT 2006


Band:           Grateful Dead
Torrent Name:   GD 12/28/88 Oakland Coliseum Arena, Oakland, CA **Daily fix - seamless**
Uploaded by:    btet
DB Link:        
Details:        http://bt.etree.org/details.php?id=27125

Contact the seeder at http://db.etree.org/btet

If the link to this show does not work, it was probably removed for
being non-trade-friendly.

Description / text file:
-------------------------
Omigod, not _another_ apocalypse! ;-)  When the world goes mad, cool down to the Dead. :-)

The Grateful Dead
12/28/88
Oakland Coliseum Arena - Oakland, CA
-------------------------------------------------------------------------------------
Fix of shnid 3914

I made the transition between CDs 2 and 3 seamless and used shntool to clean up the resulting SBE in d3t01.  I also converted the nonseekable shns to FLAC.

Bill Tetzeli (btet at adelphia.net)
4/7/2006
-------------------------------------------------------------------------------------
SBD: Healy Mix>PCM>DAT>EventGina>WAV>CD>EAC>SHN
Healy Mix = SBD+AKG C 424b mic.

Disc One - Set One -62:23
01) Iko Iko
02) Walkin' Blues
03) Tune Up
04) Jack-A-Roe
05) All Over Now
06) Tune Up
07) When Push Comes To Shove
08) Tune Up
09) Stuck Inside Of Mobile With The Memphis Blues Again
10) Bird Song
11) Tune Up
12) Jack Straw

Disc Two - Set Two - 34:00
01) Tune Up
02) China Cat Sunflower
03)>I Know You Rider
04)>Estimated Prophet
05)>He's Gone

Disc Three - Set Two -59:18
01)>Drums
02)>Space
03)>Uncle John's Band
04)>I Need A Miracle
05)>Foolish Heart
06)>Turn On Your Love Light
07) Crowd
08) E: It's All Over Now, Baby Blue

MD5 checksum:

95a762bfbab5e15cb675b900f9441cdd *gd88-12-28d1t01.flac
f678c794e11d182ab207cb8140a190ed *gd88-12-28d1t02.flac
e158e888ce87c1e8c92aece7ef2a5377 *gd88-12-28d1t03.flac
cf60b3c81abeb0dd984f78b715c1ede1 *gd88-12-28d1t04.flac
1b410a46564e61c3cc3ac0856be6abb0 *gd88-12-28d1t05.flac
d8eca08f11f8b58966b62e1f4936d721 *gd88-12-28d1t06.flac
8276d6a421ac0bfc446a0e781b1cf692 *gd88-12-28d1t07.flac
e807a190a7b80cc5001d382098f21265 *gd88-12-28d1t08.flac
ede7ca036276527475fcd73066a4f90a *gd88-12-28d1t09.flac
5202e3eaeddc55723cf84ecb53356861 *gd88-12-28d1t10.flac
f2464201bd904d155f6d2cea3f10161a *gd88-12-28d1t11.flac
8309987a67f29a057bdc816163fe87f4 *gd88-12-28d1t12.flac
b62809a9c959425ddea737f18059467d *gd88-12-28d2t01.flac
0b7d7ea42cf1bde0fb73205edf9eb0a6 *gd88-12-28d2t02.flac
eac0776a39f7619aad94adb5b544a108 *gd88-12-28d2t03.flac
a45c381dd13137ccc4cf22653b8e6fdc *gd88-12-28d2t04.flac
73f8c963d0e01b535c815e17296978c2 *gd88-12-28d2t05.flac
758e41001c39ea33b25681d1e430da6d *gd88-12-28d3t01.flac
e1061bdd534298ed8c8cc820052953b0 *gd88-12-28d3t02.flac
ff66075224f8d6471500ab2ecb676658 *gd88-12-28d3t03.flac
9c60cab47dcba7734fda5d95578a62a1 *gd88-12-28d3t04.flac
9fde386ebe411178d9b13273b2a18b85 *gd88-12-28d3t05.flac
feb4a7959d31e1cc782b2d6196ce4ce6 *gd88-12-28d3t06.flac
1b7ccfaa858ef77af55e01d65516b893 *gd88-12-28d3t07.flac
27023ec4102b52cac0a61ba806e15544 *gd88-12-28d3t08.flac

Flac fingerprint:

gd88-12-28d2t02.flac:c465c3944b5a9ca872ab4aae9648d577
gd88-12-28d2t03.flac:9d0ccc11869c2ae2a6075ce007e66d2b
gd88-12-28d2t04.flac:3a2105e231e31605b6355ee56f97fabd
gd88-12-28d2t05.flac:3e554589483b21185cc791209b55575c
gd88-12-28d3t01.flac:1aafbac351b1d3360536f80a2cd5d5ff
gd88-12-28d3t02.flac:76f73bd5485360f8dd48d3fdc202810b
gd88-12-28d3t03.flac:7ec45be51929008feffa6c641859e18a
gd88-12-28d3t04.flac:90864a949115ba710119cc4a12b9b6f9
gd88-12-28d3t05.flac:8f916251bd4d31a80a1da40cb0bae48c
gd88-12-28d3t06.flac:74eaeaa0e9b01f7fd9ba94c05b76d8ff
gd88-12-28d3t07.flac:60faa9639c33a97208812e42f8c60a03
gd88-12-28d3t08.flac:b72a8f73914059ccf40b4e4e3eb6a893
gd88-12-28d1t01.flac:15ab46de94f782bdc5b86dc89af6eff7
gd88-12-28d1t02.flac:37ba1e2021118ba85d37605aa3a54018
gd88-12-28d1t03.flac:84a19460846909f6267cc48f138f535b
gd88-12-28d1t04.flac:d85d7796adee8f92b25594b77d486a0e
gd88-12-28d1t05.flac:9e7c41f078760ef2097978b962918665
gd88-12-28d1t06.flac:02aa7e78c5d0520a50995f4472aae104
gd88-12-28d1t07.flac:42bc1a90f4fb67a7387e98faaae1a073
gd88-12-28d1t08.flac:96e30da5fa90559d8ae9070f74d34fe2
gd88-12-28d1t09.flac:c567fc94dc250ee182b885981ce7f760
gd88-12-28d1t10.flac:cad56b756c0174956e4dc9d5969d59a1
gd88-12-28d1t11.flac:25898aedb3a06495083062d922234e51
gd88-12-28d1t12.flac:63643af9316c43de75f103cd8cc32e38
gd88-12-28d2t01.flac:fb7455bcfedba4df5324d120e7ffefc9

shntool output:

    length     expanded size   cdr  WAVE problems filename
     6:45.41       71538476    ---   --   ---xx   gd88-12-28d1t01.flac
     6:54.38       73119020    ---   --   ---xx   gd88-12-28d1t02.flac
     1:56.55       20591804    ---   --   ---xx   gd88-12-28d1t03.flac
     5:04.06       53639756    ---   --   ---xx   gd88-12-28d1t04.flac
     6:13.37       65884268    ---   --   ---xx   gd88-12-28d1t05.flac
     1:48.68       19211180    ---   --   ---xx   gd88-12-28d1t06.flac
     4:33.43       48258380    ---   --   ---xx   gd88-12-28d1t07.flac
     1:19.29       14003852    ---   --   ---xx   gd88-12-28d1t08.flac
     8:50.06       93506156    ---   --   ---xx   gd88-12-28d1t09.flac
    12:04.70      127878284    ---   --   ---xx   gd88-12-28d1t10.flac
     1:25.54       15121052    ---   --   ---xx   gd88-12-28d1t11.flac
     5:24.48       57266540    ---   --   ---xx   gd88-12-28d1t12.flac
     1:42.02       17997548    ---   --   ---xx   gd88-12-28d2t01.flac
     6:13.54       65924252    ---   --   ---xx   gd88-12-28d2t02.flac
     5:35.02       59098748    ---   --   ---xx   gd88-12-28d2t03.flac
    10:48.67      114464828    ---   --   ---xx   gd88-12-28d2t04.flac
    10:00.35      105922364    ---   --   ---xx   gd88-12-28d2t05.flac
     9:26.03       99849500    ---   --   ---xx   gd88-12-28d3t01.flac
     8:04.64       85528172    ---   --   ---xx   gd88-12-28d3t02.flac
     7:40.50       81261644    ---   --   ---xx   gd88-12-28d3t03.flac
     6:03.73       64204940    ---   --   ---xx   gd88-12-28d3t04.flac
     8:21.19       88421132    ---   --   ---xx   gd88-12-28d3t05.flac
     7:48.70       82719884    ---   --   ---xx   gd88-12-28d3t06.flac
     3:17.35       34833164    ---   --   ---xx   gd88-12-28d3t07.flac
     7:43.03       81680300    ---   --   ---xx   gd88-12-28d3t08.flac
   155:07.72     1641925244 B                     (totals for 25 files, 0.6123 overall compression ratio)



More information about the bittorrent mailing list