[bittorrent] Ratdog 2006-07-11 Electric Factory Phila, PA * Nak 300s w/ CP4 *

Automated Mailer noreply-bt.e at etree.org
Tue Jul 11 23:15:52 MDT 2006


Band:           Ratdog
Torrent Name:   Ratdog 2006-07-11 Electric Factory Phila, PA * Nak 300s w/ CP4 *
Uploaded by:    Albix
DB Link:        
Details:        http://bt.etree.org/details.php?id=27053

Contact the seeder at http://db.etree.org/Albix

If the link to this show does not work, it was probably removed for
being non-trade-friendly.

Description / text file:
-------------------------
 Ratdog
 07/11/06
 Electric Factory
 Philadelphia, PA

 Source: Nakamichi 300s w/CP4 Shotguns > Sony SBM-1 > Sony PCM-M1 > coax > Hosa 276 > optical > Nomad JB3

 Mic Config: Pointed at stacks 11-12 feet high 

 Location: TS, LOB, LOC

 Taper: Steve Traietta

 Transfer: Nomad JB3 > usb > Creative PlayCenter > CD Wave Editor > Trader's Little Helper > FLAC16.
 Fades applied with CEP 2.0 Sector boundaries verified with TLH. Files encoded at level 6.
 Thanks to Steve for the patch. Patch, transfer and seeding to bt.etree.org by Alex Ford.

 
 Set I:

 d1t01  tuning/crowd
 d1t02  Matilda Mother# > 
 d1t03  Tomorrow Never Knows > 
 d1t04  Playing In The Band > 
 d1t05  Jus' Like Mama Said > 
 d1t06  Big Boss Man* >
 d1t07  Tennessee Jed, 
 d1t08  New Speedway Boogie, 
 d1t09  Shade of Grey > 
 
 d2t01  Hell In A Bucket,
 d2t02  Jack A Roe at +, 
 d2t03  Desolation Row at +^, 
 d2t04  Good Morning Little School Girl, 
 d2t05  Ashes and Glass^ > 
 d2t06  Stuff > 
 
 d3t01  Standing On The Moon > 
 d3t02  Playing Reprise, 
 d3t03  Touch Of Grey 
 Encore: 
 d3t04  Ripple 


 Notes:

 # R.I.P. Syd Barrett 1946-2006
 * = w/kyle 
 + = w/Billy Nershi
 ^ obviously for S. Madigan, aka ratbob

 
 Shntool Output:

     length      expanded size     cdr  WAVE problems filename
  1:04.56	       11421356	    ---   --   -----   rd2006-07-11d1t01.wav
  5:10.12	       54712268	    ---   --   -----   rd2006-07-11d1t02.wav
  5:20.36	       56532716	    ---   --   -----   rd2006-07-11d1t03.wav
 11:06.55	      117611804	    ---   --   -----   rd2006-07-11d1t04.wav
  8:45.02	       92614748	    ---   --   -----   rd2006-07-11d1t05.wav
  7:26.50	       78792044	    ---   --   -----   rd2006-07-11d1t06.wav
  9:29.72	      100540988	    ---   --   -----   rd2006-07-11d1t07.wav
  7:55.19	       83834732	    ---   --   -----   rd2006-07-11d1t08.wav
  7:40.31	       81216956	    ---   --   -----   rd2006-07-11d1t09.wav
 11:06.42	      117581228	    ---   --   -----   rd2006-07-11d2t01.wav
  6:46.71	       71785436	    ---   --   -----   rd2006-07-11d2t02.wav
 13:27.46	      142463036	    ---   --   -----   rd2006-07-11d2t03.wav
  8:23.71	       88896236	    ---   --   -----   rd2006-07-11d2t04.wav
 12:14.69	      129639932	    ---   --   -----   rd2006-07-11d2t05.wav
  7:45.47	       82136588	    ---   --   -----   rd2006-07-11d2t06.wav
 10:30.31	      111204956	    ---   --   -----   rd2006-07-11d3t01.wav
  6:29.29	       68687852	    ---   --   -----   rd2006-07-11d3t02.wav
  9:08.23	       96721340	    ---   --   -----   rd2006-07-11d3t03.wav
  5:04.57	       53759708	    ---   --   -----   rd2006-07-11d3t04.wav
  154:57.69     1640153924 B                     (totals for 19 files, 1.0000 overall compression ratio)

 FFP:

 rd2006-07-11d1t01.flac:b5f328ae5b78d7e3ad047d9a5951a35e
 rd2006-07-11d1t02.flac:e3580b8f5a19d9aed06ab715dabdc035
 rd2006-07-11d1t03.flac:fe181bf36d74df67ee4f0ee7d491f9f6
 rd2006-07-11d1t04.flac:4ec6b54de1a07327801e0090bee76494
 rd2006-07-11d1t05.flac:94e466f1d939c7db7b662e0f7f2d6208
 rd2006-07-11d1t06.flac:72f33c9033777a12260fd35cfbd2347b
 rd2006-07-11d1t07.flac:5d63d06a755ae514b82798980b05030c
 rd2006-07-11d1t08.flac:f751aa6c0a8ad6ad958215483b23c2eb
 rd2006-07-11d1t09.flac:5599bedd17dd139728bb0b00d31741e8
 rd2006-07-11d2t01.flac:3216fa2e8bc5e0c56623333db98e117f
 rd2006-07-11d2t02.flac:b6a60d58fd7274a07df7e1145e6fb643
 rd2006-07-11d2t03.flac:3388a31adf5258524f30532f7f0ba5b6
 rd2006-07-11d2t04.flac:7691eba905c5b72a5b0e5fd6b40e33ff
 rd2006-07-11d2t05.flac:4ee1b6603c551297a932df38e897f25f
 rd2006-07-11d2t06.flac:94251298e09c2f08e952317b5aa1ac28
 rd2006-07-11d3t01.flac:b5e80e2ddcbf0c083299305254ab348d
 rd2006-07-11d3t02.flac:eb745cf04c3271207fa889d2469e2f17
 rd2006-07-11d3t03.flac:812e9dd88510aa08d7da09bb8c667253
 rd2006-07-11d3t04.flac:cb27a1a2b97966277a46800473623759




More information about the bittorrent mailing list