[bittorrent] Grateful Dead 7/2/95 Deer Creek Amphitheatre, Noblesville, IN [AUD] **Daily fix - seamless**

Automated Mailer noreply-bt.e at etree.org
Sun Jul 9 11:31:29 MDT 2006


Band:           Grateful Dead
Torrent Name:   Grateful Dead 7/2/95 Deer Creek Amphitheatre, Noblesville, IN [AUD] **Daily fix - seamless**
Uploaded by:    btet
DB Link:        
Details:        http://bt.etree.org/details.php?id=26985

Contact the seeder at http://db.etree.org/btet

If the link to this show does not work, it was probably removed for
being non-trade-friendly.

Description / text file:
-------------------------
Grateful Dead
7-2-1995
Deer Creek Amphitheatre
Noblesville  IN
-----------------------------------------------------------------------------------
Seamless fix of shnid 12578

The original fileset of this show had Scarlet and Fire split across CDs 1 and 2, so as to be able to fit the show on two CDs.  I've rejoined the two songs and deleted the redundant material (about 20 seconds) to make the transition seamless.  I've also opted for the 3 CD approach, splitting Drums and Space across CDs 2 and 3, since the only way to keep it on two CDs would be to keep Scarlet/Fire split - I just couldn't do that.

The original CD 2 had all the .wavs inverted, so to see properly what I was doing in the editing I had to reinvert them.  All SHNs were converted to FLAC, SBEs were cleaned up using shntool.

The original fileset for this show can be downloaded at archive.org.

Bill Tetzeli (btet at adelphia.net)
10:47 AM 7/6/2006
-----------------------------------------------------------------------------------
SRC: Unknown AUD>??>Bootleg CD>WAV>SHN>WAV>FLAC

Disc 1

1.  Here Comes Sunshine
2.  Walking Blues
3.  Dire Wolf
4.  It's All Over Now
5.  Broken Arrow
6.  Desolation Row
7.  Tennessee Jed
8.  Let It Grow

Disc 2

1.  Scarlet Begonias >
2.  Fire On The Mountain >
3.  Victim or the Crime >
4.  It's All Too Much >
5.  New Speedway Boogie >
6.  Drums >

Disc 3

1.  Space >
2.  Attics of My Life >
3.  Sugar Magnolia

Encore:
4.  The Mighty Quinn (Quinn the Eskimo) (fades out)


[This is from a bootleg CD so please note that I wasn't the one who split scarlet>fire.  Quinn the Eskimo fades out early also.  You can hear the gates crash on Desolation Row.  If anyone wants to do any Further or FTP trades, email me at darkstar13311 at hotmail.com and let me know.  I will send you my list.]

MD5 checksum:

628bffdb9b22e14ece1dc30618bffadc *gd95-07-02d1t01.flac
f94721a0a47dbb04a555e1589a70fa32 *gd95-07-02d1t02.flac
f7117cd07fa6067e2e03a9b3c9171fb7 *gd95-07-02d1t03.flac
cb49bd743ad4e766c156d7ca87a75f38 *gd95-07-02d1t04.flac
b53c3829a49aec54458830fe2ed493eb *gd95-07-02d1t05.flac
296e51e4675dc44bb7d92b667f2bead5 *gd95-07-02d1t06.flac
2da34b7d4bf8a79865db08f506e8a18d *gd95-07-02d1t07.flac
c3bf6220c8867acaa10191570bb983d3 *gd95-07-02d1t08.flac
c144cfa927b71cafb4df364013e5a1f0 *gd95-07-02d2t01.flac
c6650671457dc986e95cbde750d62a57 *gd95-07-02d2t02.flac
76774cb38c253a231880a9bda3665cb4 *gd95-07-02d2t03.flac
b3574453dba7f158ecd786ed93f41d93 *gd95-07-02d2t04.flac
b8fc6e362d88fed21158daa7795908a4 *gd95-07-02d2t05.flac
de2e29080cfaf9925a97a5b34f15f79e *gd95-07-02d2t06.flac
6a671752b61955bf4f85f6f15993aaed *gd95-07-02d3t01.flac
c60348c03d459ae46e8132e639ff05f2 *gd95-07-02d3t02.flac
ebdac0d235d10b038549299bd81b1a64 *gd95-07-02d3t03.flac
e78424497a6759fc1930ab113f60b4cf *gd95-07-02d3t04.flac

FLAC fingerprint:

gd95-07-02d1t01.flac:c1d3e220d0c8eee9b2f6f586c46f9323
gd95-07-02d1t02.flac:0e5a1eb825c1932f772db4bf4883f233
gd95-07-02d1t03.flac:3639cb3e182ac747e185e34e447e3e34
gd95-07-02d1t04.flac:05990d996ebd36bbd33d2c11c3d1f724
gd95-07-02d1t05.flac:e56c9215d5c73a5b5a7de75184fd3c70
gd95-07-02d1t06.flac:4d7580508edb769a46ee51ba07f79626
gd95-07-02d1t07.flac:e4abdb991dcc50567ba1e380f091fff0
gd95-07-02d1t08.flac:c1f54588733e136b89581667ad4995c2
gd95-07-02d2t01.flac:5284452e1f4390bf0ab0c67d485959b7
gd95-07-02d2t02.flac:8c95fe1801c208b91c088e814f8debd3
gd95-07-02d2t03.flac:711099760633bfa70204558027e471e4
gd95-07-02d2t04.flac:4cf860bb2428597009e711750cef6e24
gd95-07-02d2t05.flac:11b085882a022cf413e580a482d5b833
gd95-07-02d2t06.flac:583193d3de9701aa009974105b0ef0d8
gd95-07-02d3t01.flac:44b74807dde9a42529fcdc853d720dd1
gd95-07-02d3t02.flac:8e71b6d49b154f18ef7921a86aa8f430
gd95-07-02d3t03.flac:6c34ab45651cc30174153ba09da433be
gd95-07-02d3t04.flac:8050684056442b420969b505b5efa806

shntool output:

    length     expanded size   cdr  WAVE problems filename
     7:01.08       74283260    ---   --   ---xx   gd95-07-02d1t01.flac
     6:19.25       66914444    ---   --   ---xx   gd95-07-02d1t02.flac
     3:48.50       40336844    ---   --   ---xx   gd95-07-02d1t03.flac
     6:31.08       68991260    ---   --   ---xx   gd95-07-02d1t04.flac
     5:41.61       60295916    ---   --   ---xx   gd95-07-02d1t05.flac
    10:25.43      110351180    ---   --   ---xx   gd95-07-02d1t06.flac
     7:48.03       82562300    ---   --   ---xx   gd95-07-02d1t07.flac
    12:11.60      129089564    ---   --   ---xx   gd95-07-02d1t08.flac
     8:26.01       89260796    ---   --   ---xx   gd95-07-02d2t01.flac
    14:09.30      149834204    ---   --   ---xx   gd95-07-02d2t02.flac
     7:53.61       83580716    ---   --   ---xx   gd95-07-02d2t03.flac
     5:58.68       63311180    ---   --   ---xx   gd95-07-02d2t04.flac
     9:04.51       96081596    ---   --   ---xx   gd95-07-02d2t05.flac
    14:39.23      155109740    ---   --   ---xx   gd95-07-02d2t06.flac
     9:41.14      102521372    ---   --   ---xx   gd95-07-02d3t01.flac
     4:33.12       48185468    ---   --   ---xx   gd95-07-02d3t02.flac
     9:14.30       97796204    ---   --   ---xx   gd95-07-02d3t03.flac
     4:09.11       43949072    -b-   --   ---xx   gd95-07-02d3t04.flac
   147:37.34     1562455116 B                     (totals for 18 files, 0.5431 overall compression ratio)




More information about the bittorrent mailing list