[bittorrent] Tea Leaf Green - 7/2/2006 - HSMF - Grandstand Stage - Quincy, CA

Automated Mailer noreply-bt.e at etree.org
Sun Jul 9 10:27:36 MDT 2006


Band:           Tea Leaf Green
Torrent Name:   Tea Leaf Green - 7/2/2006 - HSMF - Grandstand Stage - Quincy, CA
Uploaded by:    cimburgia
DB Link:        
Details:        http://bt.etree.org/details.php?id=26984

Contact the seeder at http://db.etree.org/cimburgia

If the link to this show does not work, it was probably removed for
being non-trade-friendly.

Description / text file:
-------------------------
Tea Leaf Green
July 2, 2006
Grandstand Stage
High Sierra Music Festival
Quincy, CA

Source: Schoeps mk21-> kc5-> cmc6xt-> Oade m248-> SD722 (24/48)-> CDWave-> Wavelab (16/44)-> FLAC Frontend (Level 6)-> FLAC
Taper: Chris Imburgia

One Set
(Disc 1)
1. Franz Hanzerbeak
2. Taught to be Proud
3. Georgie P *
4. Faced with Love
5. If It Wasn't for the Money
6. Ride Together
7. Flippin' The Bird #
8. Bouncin' Betty #
9. One Reason #
10. Incandescent Devil#
(Disc 2)
01. Carter Hotel #
02. Garden 3 #
03. These Two Chairs #
04. Kali-Yuga #

Notes:
* w/ George Porter Jr. on bass
# with Matt Butler

FLAC Fingerprint
-----------------------------------------------------
tlg2006-07-02d2t04.flac:fcf55c8533bb0ee77df87948fa49079b
tlg2006-07-02d1t01.flac:1bb6c401087a083edecf9a9e69a9cc38
tlg2006-07-02d1t02.flac:b507a499e3bf645d81844538ff4a6d2b
tlg2006-07-02d1t03.flac:9ffacda3071bdb70cf9ff83e3b58c22a
tlg2006-07-02d1t04.flac:b36c72a6f512a6dd2f320ee80893d6dd
tlg2006-07-02d1t05.flac:bdadc4e4b07d4597b7db841ebe60e29e
tlg2006-07-02d1t06.flac:0b20c2390c2d2ae79295f6af766069dc
tlg2006-07-02d1t07.flac:e4e9340962e291414ba4f02694922673
tlg2006-07-02d1t08.flac:e713962cd6294c932f5249426bdb198d
tlg2006-07-02d1t09.flac:9e179699aafb234bd47dbea968bd7418
tlg2006-07-02d1t10.flac:0f6a3a67f6272253ef8c5a881544c17d
tlg2006-07-02d2t01.flac:87a6ea035e4ecbfd6e296afe75a0689f
tlg2006-07-02d2t02.flac:03946740a94921be69f93e73868dd68a
tlg2006-07-02d2t03.flac:df9f07023ad911a52b5dac67b770bfa7

   length     expanded size   cdr  WAVE problems filename
     8:41.25       91963244    ---   --   ---xx   tlg2006-07-02d1t01.flac
     7:06.45       75252284    ---   --   ---xx   tlg2006-07-02d1t02.flac
     9:56.34      105214412    ---   --   ---xx   tlg2006-07-02d1t03.flac
     4:38.32       49114508    ---   --   ---xx   tlg2006-07-02d1t04.flac
     5:04.06       53639756    ---   --   ---xx   tlg2006-07-02d1t05.flac
     7:39.33       81045260    ---   --   ---xx   tlg2006-07-02d1t06.flac
     3:33.39       37664972    ---   --   ---xx   tlg2006-07-02d1t07.flac
     5:32.27       58628348    ---   --   ---xx   tlg2006-07-02d1t08.flac
     4:48.33       50880860    ---   --   ---xx   tlg2006-07-02d1t09.flac
     6:15.24       66206492    ---   --   ---xx   tlg2006-07-02d1t10.flac
     3:27.60       36655964    ---   --   ---xx   tlg2006-07-02d2t01.flac
     5:19.05       56283404    ---   --   ---xx   tlg2006-07-02d2t02.flac
     5:21.49       56739692    ---   --   ---xx   tlg2006-07-02d2t03.flac
    10:20.52      109490348    ---   --   ---xx   tlg2006-07-02d2t04.flac
    87:45.14      928779544 B                     (totals for 14 files, 0.5841 overall compression ratio)





More information about the bittorrent mailing list