[bittorrent] Tea Leaf Green - 2006-07-01, HSMF (Late Night), Quincy, CA

Automated Mailer noreply-bt.e at etree.org
Sat Jul 8 20:40:17 MDT 2006


Band:           Tea Leaf Green
Torrent Name:   Tea Leaf Green - 2006-07-01, HSMF (Late Night), Quincy, CA
Uploaded by:    dueling
DB Link:        
Details:        http://bt.etree.org/details.php?id=26974

Contact the seeder at http://db.etree.org/dueling

If the link to this show does not work, it was probably removed for
being non-trade-friendly.

Description / text file:
-------------------------
Tea Leaf Green
High Sierra Music Festival
Late Night @ Funk'n Jamhouse
Quincy, CA
7/1/06


Source: (On Stage) Crown SASS P-MK2 PZM + (FOH) Crown CM-700MP's > Shure FP42 > Sound Devices 744t @ 24/48

Conversion: Audacity > Wavelab 5 (16/44.1 w/UV22 HR) > CDWave > FLAC Frontend (level 6) > flac
Recorded by Bob Cogswell (sunauto at pacbell.net)
Converted and seeded by Graham Munda (dueling at magpage.com)


Disc 1

01) Gasaholic
02) Rapture
03) Panspermic De-evolution >
04) Saw Your Mama >
05) Panspermic De-evolution >
06) I Got No Friends in Arizona >
07) Precious Stone >
08) Can You Guess It?
09) The Garden (Part II)* >
10) Hot Dog*

Disc 2

(set I cont.)
01) Can't You See** >
02) Planet of Green Love***
03) Morning Sun
04) Can't Get High
05) The Devil's Pay
06) Harvest Time
07) Reservoir****

Disc 3

(set I cont.)
01) Jezebel >
02) Sex in the 70's
(encore)
03) Truck Stop Sally
04) Moonshine
05) Death Cake


Notes:
Late Night @ Funk'n Jamhouse
* w/ Jon Gutwillig from Disco Biscuits on guitar
** Marshall Tucker Band cover, w/ Dan Leibowitz from ALO on guitar
*** w/ Dan Leibowitz from ALO on guitar
**** w/ Matt Kass from The Brakes on guitar


Recording gear used:
Stage mic: Crown SASS P Mk 2 stereo condenser PZM (pressure zone microphone).
House mics: Crown CM-700 cardioid condensers, one each on the PA mains.


*******************flac fingerprint*********************
tlg2006-07-01d1t01.flac:022cc6cba4f2ee63810bcf13fff5564d
tlg2006-07-01d1t02.flac:fed9936a0acfda0ba872f7403d880ba0
tlg2006-07-01d1t03.flac:7dc79579d8f0a09d0de1db545c1aa568
tlg2006-07-01d1t04.flac:d445ae2a0bf6b096575c7859d2e51702
tlg2006-07-01d1t05.flac:5d133065c5388ea5f0f96ab5a9f7fded
tlg2006-07-01d1t06.flac:f0b75f3de56fd4ec335d2730fc297e26
tlg2006-07-01d1t07.flac:d2b895be64781705b140a3da96329f41
tlg2006-07-01d1t08.flac:6c999619a304a546a32b06e57ef7382c
tlg2006-07-01d1t09.flac:80b09c33c139c7ec5a4d9455f8565d55
tlg2006-07-01d1t10.flac:9230f747fb820acb120c6c0bbba446c7
tlg2006-07-01d2t01.flac:0ef7673d91633ac1730dd529c8c31f1e
tlg2006-07-01d2t02.flac:e36e8d4162bdc5d8cef49929e7051c6c
tlg2006-07-01d2t03.flac:2ad62f1d950ed3a44c32622557c4db18
tlg2006-07-01d2t04.flac:c36fa1a77776cab9d1e6c017364150fe
tlg2006-07-01d2t05.flac:bf3c7702d2845b77e3d324bbea8eec78
tlg2006-07-01d2t06.flac:43c6309753d8264368648b8fce0044c4
tlg2006-07-01d2t07.flac:5cb962d15df6a697c94c631c985820c2
tlg2006-07-01d3t01.flac:1e021c5bfbb9cfe77bb8b49f11077cf5
tlg2006-07-01d3t02.flac:7a8be3f4b13f3c6a733181b132416a40
tlg2006-07-01d3t03.flac:fbba929cc97a52da0d31028c51e2deb2
tlg2006-07-01d3t04.flac:bb0bcdf87e22cdfd5041788bae4ff49f
tlg2006-07-01d3t05.flac:e5c143673f1f93aec30fd9eb6164d432

*******************Shntool Output***********************
    length     expanded size   cdr  WAVE problems filename
    11:13.61      118860716    ---   --   ---xx   tlg2006-07-01d1t01.flac
     4:49.51       51099596    ---   --   ---xx   tlg2006-07-01d1t02.flac
     6:30.42       68894828    ---   --   ---xx   tlg2006-07-01d1t03.flac
     4:17.40       45428924    ---   --   ---xx   tlg2006-07-01d1t04.flac
     2:04.45       21979484    ---   --   ---xx   tlg2006-07-01d1t05.flac
     4:37.04       48872252    ---   --   ---xx   tlg2006-07-01d1t06.flac
     8:34.66       90824876    ---   --   ---xx   tlg2006-07-01d1t07.flac
     8:36.02       91027148    ---   --   ---xx   tlg2006-07-01d1t08.flac
     6:07.12       64767068    ---   --   ---xx   tlg2006-07-01d1t09.flac
     9:27.46      100127036    ---   --   ---xx   tlg2006-07-01d1t10.flac
     9:02.55       95738204    ---   --   ---xx   tlg2006-07-01d2t01.flac
    16:51.56      178472156    ---   --   ---xx   tlg2006-07-01d2t02.flac
     7:51.15       83119724    ---   --   ---xx   tlg2006-07-01d2t03.flac
     7:46.71       82369436    ---   --   ---xx   tlg2006-07-01d2t04.flac
     8:18.49       87962492    ---   --   ---xx   tlg2006-07-01d2t05.flac
     5:18.02       56099948    ---   --   ---xx   tlg2006-07-01d2t06.flac
     8:02.70       85189484    ---   --   ---xx   tlg2006-07-01d2t07.flac
    10:05.32      106797308    ---   --   ---xx   tlg2006-07-01d3t01.flac
    14:31.40      153738524    ---   --   ---xx   tlg2006-07-01d3t02.flac
     5:37.48       59559740    ---   --   ---xx   tlg2006-07-01d3t03.flac
     4:16.17       45198428    ---   --   ---xx   tlg2006-07-01d3t04.flac
     3:09.52       33461948    ---   --   ---xx   tlg2006-07-01d3t05.flac
   167:11.51        1687.61 MB                    (totals for 22 files, 0.6193 overall compression ratio)



More information about the bittorrent mailing list