[bittorrent] Shady Deal - 6/30/2006 - HSMF - Quincy, CA

Automated Mailer noreply-bt.e at etree.org
Sat Jul 8 14:13:39 MDT 2006


Band:           Other
Torrent Name:   Shady Deal - 6/30/2006 - HSMF - Quincy, CA
Uploaded by:    cimburgia
DB Link:        
Details:        http://bt.etree.org/details.php?id=26969

Contact the seeder at http://db.etree.org/cimburgia

If the link to this show does not work, it was probably removed for
being non-trade-friendly.

Description / text file:
-------------------------
Shady Deal
6/30/2006
High Sierra Music Festival
Shady Grove Stage
Quincy, CA

Source: Schoeps mk21-> kc5-> cmc6xt-> Oade m248-> SD722 (24/48)-> CDWave-> Flac Frontend (Level 6)-> FLAC
Taper: Chris Imburgia

01.
02.
03.
04.
05.
06.
07.
08.
09.
10.
11. 
12. Eminence Front

FLAC Fingerprint
--------------------------------------------------------
sd2006-06-30t12.flac:e8df208a65f1bc0a34e2983f4c89b529
sd2006-06-30t01.flac:a03d4d4556c2919184df4497d7698571
sd2006-06-30t02.flac:60124f21c309845983368fae6b7de150
sd2006-06-30t03.flac:94852df289ef2c0857f80c6263e96ee9
sd2006-06-30t04.flac:b1b3497115a2d4df8d066d0fa212d994
sd2006-06-30t05.flac:148e86e3607f6e2089ef03d36564c4c4
sd2006-06-30t06.flac:733f66dcb39d5a4effcdbee030a3e5b7
sd2006-06-30t07.flac:c7aa02e6721e35070eeb3231953d3567
sd2006-06-30t08.flac:63ce88c9bd35b8f230bea7d55e5ec296
sd2006-06-30t09.flac:9103d6ab110c183040e8b2ebf4736027
sd2006-06-30t10.flac:c64bb37b1bacb25d669581efa725a8c1
sd2006-06-30t11.flac:7138a1d45bdf9773c2abcad559304fc6

 length     expanded size   cdr  WAVE problems filename
     6:02.35       63939164    ---   --   ---xx   sd2006-06-30t01.flac
     6:47.14       71827772    ---   --   ---xx   sd2006-06-30t02.flac
     9:25.68       99825980    ---   --   ---xx   sd2006-06-30t03.flac
    13:45.34      145610012    ---   --   ---xx   sd2006-06-30t04.flac
     5:41.34       60232412    ---   --   ---xx   sd2006-06-30t05.flac
     8:58.57       95037308    ---   --   ---xx   sd2006-06-30t06.flac
     8:02.25       85083644    ---   --   ---xx   sd2006-06-30t07.flac
     4:00.26       42397196    ---   --   ---xx   sd2006-06-30t08.flac
     6:25.50       68031644    ---   --   ---xx   sd2006-06-30t09.flac
     6:19.05       66867404    ---   --   ---xx   sd2006-06-30t10.flac
     6:54.31       73102556    ---   --   ---xx   sd2006-06-30t11.flac
     7:16.05       76922204    ---   --   ---xx   sd2006-06-30t12.flac
    89:39.09      948877296 B                     (totals for 12 files, 0.6733 overall compression ratio)







More information about the bittorrent mailing list