[bittorrent] Phish 08/02/2003 IT, Limestone, ME (Includes Tower Set)(AKG481>DMIC-20>D-8)

Automated Mailer noreply-bt.e at etree.org
Thu Jul 6 20:27:34 MDT 2006


Band:           Phish
Torrent Name:   Phish 08/02/2003 IT, Limestone, ME (Includes Tower Set)(AKG481>DMIC-20>D-8)
Uploaded by:    diskobean
DB Link:        
Details:        http://bt.etree.org/details.php?id=26923

Contact the seeder at http://db.etree.org/diskobean

If the link to this show does not work, it was probably removed for
being non-trade-friendly.

Description / text file:
-------------------------
Phish
8/2/03
IT
Limestone, ME

First Set: B+K 4023 >>> Lunatec V2 >>> Apogee A/D500 at 44.1k >>> Tascam DAP-1

2nd and 3rd Sets: AKG CK61/480(DIN/OTS) >>> Graham Patten DMIC-20 at 48k >> Sony D-8

4th Set: AKG CK61/480(ORTF/Front rail for tower set) >>> Graham Patten DMIC-20 at 48k >>> Sony D-8

Tascam DAP-1 > Hosa ODL-276 > Nomad JB3 > Firewire > Samplitude 6.0(48>44.1k) > CD Wave > FLAC Frontend

First set taped by Pete Lane(thanks Pete!) and transferred by Bean

2nd, 3rd, and 4th sets were taped and transferred by Bean (diskobean at taperssection.com)

3 SETS+Tower Set

~d1: set 1~

01. crowd
02. AC/DC Bag
03. Ya Mar >>>
04. Runaway Jim
05. Reba*
06. Birds Of A Feather
07. Meatstick

~d2: set 1 (cont.)~

01. Two Versions Of Me
02. Vultures
03. Limb By Limb
04. Cavern
set 2:
05. crowd
06. Down W/ Disease >>>
07. NICU >>>
08. Brother
09. Lawnboy

~d3: set 2 (cont.)~

01. Discern
02. Waves^ >>>
03. David Bowie
set 3:
04. crowd
05. Rock And Roll^^ >>>
06. Seven Below >>>

~d4: set 3 (cont.)~

01. Scents And Subtle Sounds >>>
02. Spread It Round
03. Bug
04. E: Dog Log
05. Mango Song

~d5: Latenite Tower Set~

01. Tower Jam#

* with whistling; 
**Trey: "we'd like to honor that request" (referring to loud crowd chant for the song), and sung with Japanese lyrics; 
^ with ambient jam; 
^^ with Seven Below teases. 
#An all-improvised (and unannounced, though heavily rumored) set from the roof of the old  air-traffic control tower, taking place about 2-3am, with special lighting by Chris Kuroda.  Featured many teases, accompanied by dancers on rappel lines down the tower's sides. Thanks to  Cody Schibi, Allan Morris, and PhantasyTour for the info.

*****************FLAC Fingerprint******************

ph2003-08-02d1t01.flac:de0f4ad91473fb6b81c0572d86140202
ph2003-08-02d1t02.flac:e31b8e663c7f1b06ecd0ebf786ca5278
ph2003-08-02d1t03.flac:f61359440f543e7ae7b173f8c818c7e6
ph2003-08-02d1t04.flac:a4d224a618f8bbf48710399d6d314213
ph2003-08-02d1t05.flac:1ca64f38df2352137d12311d98c7920b
ph2003-08-02d1t06.flac:0f8ae2f4d6856c973dfb71a350b455fc
ph2003-08-02d1t07.flac:b4d51100ae0cde3538a9b097363addbf
ph2003-08-02d2t01.flac:4191439d2bc35a0eb704cb08ed4aa685
ph2003-08-02d2t02.flac:fe71e66ede737f1c56f4a467fb688707
ph2003-08-02d2t03.flac:10434565e35a18d9e06805d97947c3c9
ph2003-08-02d2t04.flac:fdfa57d234f1ed668435761929bfb376
ph2003-08-02d2t05.flac:6937bdfaab3f71477447ea176b17902f
ph2003-08-02d2t06.flac:5328465303af08fe5859e8693414e249
ph2003-08-02d2t07.flac:e7e7166279ca18b34488e741678aad45
ph2003-08-02d2t08.flac:c7021addb7d697af054554555bed2211
ph2003-08-02d2t09.flac:957be59e9f34a109ff52eb38f7bdbe8c
ph2003-08-02d3t01.flac:b462ef268b755dbe9f37f62ce9cf2cf8
ph2003-08-02d3t02.flac:1e519327c95e7f59ceea07d84720e598
ph2003-08-02d3t03.flac:c1655315ece7318f7859285ca2a0a395
ph2003-08-02d3t04.flac:38a42c6e1f9ab38756c7de8ef9af3a4e
ph2003-08-02d3t05.flac:0aba5d0da3e3d255398e7c87a47b7279
ph2003-08-02d3t06.flac:8521879b71a3516154abca00ed79d5cf
ph2003-08-02d4t01.flac:1f7dd68536c55f05f968348b1a4f43bb
ph2003-08-02d4t02.flac:d356e0b7455d6c6ce0aa4f8ae2ff2444
ph2003-08-02d4t03.flac:87766ddf8f7128470af1cddb1fdf4c8f
ph2003-08-02d4t04.flac:e1708530b881ba4fef66dfd83ffe042a
ph2003-08-02d4t05.flac:39d7bbd9494a3c349584c724623e08ff
ph2003-08-02d5t01.flac:38af65475f2c9f5aac8fead8422c3d01

******************SHN Tool Output************************

    length     expanded size   cdr  WAVE problems filename
     1:10.37       12435068    ---   --   ---xx   ph2003-08-02d1t01.flac
     8:16.65       87647324    ---   --   ---xx   ph2003-08-02d1t02.flac
    17:30.48      185332940    ---   --   ---xx   ph2003-08-02d1t03.flac
     7:40.19       81188732    ---   --   ---xx   ph2003-08-02d1t04.flac
    18:59.73      201091340    ---   --   ---xx   ph2003-08-02d1t05.flac
    16:43.60      177070364    ---   --   ---xx   ph2003-08-02d1t06.flac
     9:08.00       96667244    ---   --   ---xx   ph2003-08-02d1t07.flac
     6:25.24       67970492    ---   --   ---xx   ph2003-08-02d2t01.flac
     7:47.47       82489388    ---   --   ---xx   ph2003-08-02d2t02.flac
    11:15.40      119164124    ---   --   ---xx   ph2003-08-02d2t03.flac
     6:17.19       66547532    ---   --   ---xx   ph2003-08-02d2t04.flac
     1:20.25       14170844    ---   --   ---xx   ph2003-08-02d2t05.flac
    22:27.40      237704924    ---   --   ---xx   ph2003-08-02d2t06.flac
     5:51.15       61951724    ---   --   ---xx   ph2003-08-02d2t07.flac
     6:30.14       68828972    ---   --   ---xx   ph2003-08-02d2t08.flac
     5:14.40       55483724    ---   --   ---xx   ph2003-08-02d2t09.flac
     9:12.40       97466924    ---   --   ---xx   ph2003-08-02d3t01.flac
    20:59.31      222160556    ---   --   ---xx   ph2003-08-02d3t02.flac
    13:58.41      147919676    ---   --   ---xx   ph2003-08-02d3t03.flac
     1:48.31       19124156    ---   --   ---xx   ph2003-08-02d3t04.flac
    17:36.29      186346652    ---   --   ---xx   ph2003-08-02d3t05.flac
    12:47.18      135341180    ---   --   ---xx   ph2003-08-02d3t06.flac
    14:10.17      149980028    ---   --   ---xx   ph2003-08-02d4t01.flac
     8:49.47       93426188    ---   --   ---xx   ph2003-08-02d4t02.flac
    16:06.62      170548268    ---   --   ---xx   ph2003-08-02d4t03.flac
     4:19.27       45751148    ---   --   ---xx   ph2003-08-02d4t04.flac
     9:06.10       96337964    ---   --   ---xx   ph2003-08-02d4t05.flac
    64:51.25      686431244    ---   --   ---xx   ph2003-08-02d5t01.flac
   346:25.44        3496.72 MB                    (totals for 28 files, 0.4907 overall compression ratio)



More information about the bittorrent mailing list