[bittorrent] GD 10/17/81 The Hippodrome, Paris, FR

Automated Mailer noreply-bt.e at etree.org
Thu Jul 6 08:24:54 MDT 2006


Band:           Grateful Dead
Torrent Name:   GD 10/17/81 The Hippodrome, Paris, FR
Uploaded by:    btet
DB Link:        
Details:        http://bt.etree.org/details.php?id=26895

Contact the seeder at http://db.etree.org/btet

If the link to this show does not work, it was probably removed for
being non-trade-friendly.

Description / text file:
-------------------------
Grateful Dead
10/17/81
The Hippodrome
Paris, FR
-----------------------------------------------------------------------------------
Seamless fix of shnid 7915

I deleted the redundancy between CDs 2 and 3, making the transition seamless.  SHNs were converted to FLAC and SBEs cleaned up with shntool.

Bill Tetzeli (btet at adelphia.net)
3:26 AM 7/5/2006
-----------------------------------------------------------------------------------
SBD: MC > DAT > CDR

Disc #1

Set 1:
1. Shakedown Street > *
2. Minglewood Blues
3. Candyman >
4. Me & My Uncle
5. Big River
6. Althea > #
7. Little Red Rooster
8. Brown Eyed Women
9. Looks Like Rain
10. Don't Ease Me In

Disc #2

Set 2:
1. Truckin' >
2. Bird Song >
3. Good Times > **
4. Estimated Prophet >
5. Eyes Of The World >
6. Drums >

Disc #3

1. Space >
2. Not Fade Away > ##
3. Morning Dew
4. Around And Around
5. One More Saturday Night
Encore:
6. US Blues

Notes:
* brief diginoise @ 0:16
# cuts @ 6:26 - aud patched
** cuts @ 1:54 - aud patched
## cuts @ 6:16 - aud patched

Patches from AUD: MC > CDR (patched by Bernd Weiskircher).

(Thanks to Neil Sturvetant for the DAT and John Martin for the transfer).


MD5 checksum:

2bc31bfe99bc0470f96c0f83871abf39 *gd81-10-17d1t01.flac
d90e38c939b64b0c6b4af559a0940864 *gd81-10-17d1t02.flac
0ad707fe47af99d872f1586da7bb72da *gd81-10-17d1t03.flac
d7249c299643364d4a0e4afc861c47fc *gd81-10-17d1t04.flac
b3f72b2777e553169bbb5855fa037c6e *gd81-10-17d1t05.flac
7dbcc02ba9bcdca4a0233aa32b188403 *gd81-10-17d1t06.flac
70d250a99aebc2bab06737faf1166037 *gd81-10-17d1t07.flac
d88561af016066d03ecbd8a0e64f783d *gd81-10-17d1t08.flac
de9e2088e2f84de2df3e08be48cc5df8 *gd81-10-17d1t09.flac
6bb53698c7cc54f98fb8d7fdd433e459 *gd81-10-17d1t10.flac
70a5b8ac1e55a9114dea63c843b17044 *gd81-10-17d2t01.flac
5662316340ce8c37100fb6fb0cfd123c *gd81-10-17d2t02.flac
254e1b814b830d82c351bec091d14a0d *gd81-10-17d2t03.flac
836ceb31e0794b1e765ed4b0fb212d12 *gd81-10-17d2t04.flac
a8ee9c1c41c6dd8fdac1aeb3d199407f *gd81-10-17d2t05.flac
8afb33bf5919091dc0bc6a058806c4e7 *gd81-10-17d2t06.flac
f4a11ad1935bf382077c7350e9e6df10 *gd81-10-17d3t01.flac
0c012c8abaec707c955933eff88a7e63 *gd81-10-17d3t02.flac
9571680731dbd83c45fdae87b9f70417 *gd81-10-17d3t03.flac
c031e5d85938d8ae3316935de9da935e *gd81-10-17d3t04.flac
b130b6ffb68bd8d2929a3d62cab8725b *gd81-10-17d3t05.flac
149fe6b6adfc53cad2060bf4fffabef9 *gd81-10-17d3t06.flac

FLAC fingerprint:

gd81-10-17d1t01.flac:56495c17b6e9d582518423de3f545ad1
gd81-10-17d1t02.flac:f6b64bc7c14daf0cabc1bf09c837c3ca
gd81-10-17d1t03.flac:cbf0a769b3337bac75dd00edb7ad6baa
gd81-10-17d1t04.flac:fb585b709d2018f6dd1531a5a3896b09
gd81-10-17d1t05.flac:9e1206f562fa2b4babb522a7456c0a38
gd81-10-17d1t06.flac:b0a1cfd02c9e7a9132323b7d5a92fce1
gd81-10-17d1t07.flac:d037e8b0fad533ec9feebf1e2f82ecd2
gd81-10-17d1t08.flac:f9958c2946e434f7a7408fe7ce67731c
gd81-10-17d1t09.flac:a025b6324612b475ee464d930b2051ab
gd81-10-17d1t10.flac:a329868efd9521b08767e590c7abefaa
gd81-10-17d2t01.flac:560c98a2f3c5ea50b1fabe6b7a30d43d
gd81-10-17d2t02.flac:59c486ea69174576eb467e1044f50ed0
gd81-10-17d2t03.flac:b84118e82fa3179871f30f387885ba0a
gd81-10-17d2t04.flac:d75966bc426b492b8fee7a512b06a31a
gd81-10-17d2t05.flac:77669886791a2c4f24a7555681977ca4
gd81-10-17d2t06.flac:4619ad80234bfee817469e6ef9c55342
gd81-10-17d3t01.flac:5826aadcfee6d013c10099cb77208e9e
gd81-10-17d3t02.flac:d23207965fbc6c0a3b2bfa32490702e3
gd81-10-17d3t03.flac:faec52a6690efb3f652e0de927f5ef46
gd81-10-17d3t04.flac:2bfa9c5f8ed7313a46b52e7dc151d0b1
gd81-10-17d3t05.flac:a0a449cd57e695756f08d1f5c3d97247
gd81-10-17d3t06.flac:adc08ca8bf53ba9c26b96dd1f30c24d0

shntool output:

    length     expanded size   cdr  WAVE problems filename
    13:42.12      145029068    ---   --   ---xx   gd81-10-17d1t01.flac
     7:34.69       80247932    ---   --   ---xx   gd81-10-17d1t02.flac
     6:41.07       70752908    ---   --   ---xx   gd81-10-17d1t03.flac
     2:57.03       31229900    ---   --   ---xx   gd81-10-17d1t04.flac
     5:38.65       59776124    ---   --   ---xx   gd81-10-17d1t05.flac
     8:33.69       90655532    ---   --   ---xx   gd81-10-17d1t06.flac
     8:31.23       90194540    ---   --   ---xx   gd81-10-17d1t07.flac
     5:59.42       63426428    ---   --   ---xx   gd81-10-17d1t08.flac
     8:32.56       90448556    ---   --   ---xx   gd81-10-17d1t09.flac
     3:31.12       37248668    ---   --   ---xx   gd81-10-17d1t10.flac
     8:03.32       85276508    ---   --   ---xx   gd81-10-17d2t01.flac
     8:33.53       90617900    ---   --   ---xx   gd81-10-17d2t02.flac
     7:29.44       79307132    ---   --   ---xx   gd81-10-17d2t03.flac
    12:42.07      134433308    ---   --   ---xx   gd81-10-17d2t04.flac
     8:21.71       88543436    ---   --   ---xx   gd81-10-17d2t05.flac
     8:06.71       85897436    ---   --   ---xx   gd81-10-17d2t06.flac
     5:59.73       63499340    ---   --   ---xx   gd81-10-17d3t01.flac
     7:09.32       75750908    ---   --   ---xx   gd81-10-17d3t02.flac
    11:53.14      125806172    ---   --   ---xx   gd81-10-17d3t03.flac
     3:48.44       40322732    ---   --   ---xx   gd81-10-17d3t04.flac
     4:25.05       46757804    ---   --   ---xx   gd81-10-17d3t05.flac
     5:27.39       57774572    ---   --   ---xx   gd81-10-17d3t06.flac
   163:44.18     1732996904 B                     (totals for 22 files, 0.5474 overall compression ratio)



More information about the bittorrent mailing list