[bittorrent] Grateful Dead - The Spectrum - 4/6/1985 - new to circulation

Automated Mailer noreply-bt.e at etree.org
Thu Jul 6 03:56:10 MDT 2006


Band:           Grateful Dead
Torrent Name:   Grateful Dead - The Spectrum - 4/6/1985 - new to circulation
Uploaded by:    other3
DB Link:         http://db.etree.org/shn/73770
Details:        http://bt.etree.org/details.php?id=26891

Contact the seeder at http://db.etree.org/other3

If the link to this show does not work, it was probably removed for
being non-trade-friendly.

Description / text file:
-------------------------
The Grateful Dead
The Spectrum
Philadelphia, Pa
04-06-1985

Source: unknown shotgun mics > Sony D6 > Maxell MX 90s (MC)

MC > Playback on Marantz PRD505 (azimuth adjusted) > Marantz Intergrated
Stereo Amp MP-68 > SBLive! > Sound Forge normalization > WAV > CDWave > WAVs > 
mkwAC > SHNs

This recording was done to capture as much as possable.
There were no tape flips requiring fast forwarding or 
rewinding during the actual recording. Side A of the first
tape was recorded then Side A of the second cassette.
Everything was then fast forwarded at the break.
Side B of the second cassette was recorded and then Side B
of the first cassette.

Recorded, transfed & seeded by Charles Bandrofcheck

All discs can be combined on extended media for continuous play


Disc 1

Set 1

01. Crowd/tuning
02. Feel Like A Stranger
03. They Love Each Other
04. New Minglewood Blues
05. Dupree's Diamond Blues
06. Mama Tried
07. Big River
08. Big Railroad Blues
09. Looks Like Rain
10. Don't Ease Me In

Disc 2

Set 2

01. Crowd/tuning
02. China Cat Sunflower >
03. I Know You Rider
04. Playing In The Band
05. Uncle John's Band
06. Drums
07. Space (tape change)
08. The Other One
09. Throwing Stones

Disk3

01. Not Fade Away

Encore

02. One More Saturday Night

    length     expanded size   cdr  WAVE problems filename
     1:12.03       12707900    ---   --   ---xx   gd1985-04-06d1t01.shn
    10:08.63      107399420    ---   --   ---xx   gd1985-04-06d1t02.shn
     7:37.48       80727740    ---   --   ---xx   gd1985-04-06d1t03.shn
     8:36.11       91048316    ---   --   ---xx   gd1985-04-06d1t04.shn
     9:39.57      102269708    ---   --   ---xx   gd1985-04-06d1t05.shn
     2:53.26       30578396    ---   --   ---xx   gd1985-04-06d1t06.shn
     6:05.61       64529516    ---   --   ---xx   gd1985-04-06d1t07.shn
     3:57.36       41891516    ---   --   ---xx   gd1985-04-06d1t08.shn
     9:19.32       98682908    ---   --   ---xx   gd1985-04-06d1t09.shn
     3:42.58       39297324    -b-   --   ---xx   gd1985-04-06d1t10.shn
     0:22.60        4021964    ---   --   ---xx   gd1985-04-06d2t01.shn
     6:05.27       64449548    ---   --   ---xx   gd1985-04-06d2t02.shn
     5:42.33       60406460    ---   --   ---xx   gd1985-04-06d2t03.shn
    10:53.20      115236284    ---   --   ---xx   gd1985-04-06d2t04.shn
    10:31.34      111388412    ---   --   ---xx   gd1985-04-06d2t05.shn
     7:17.22       77138588    ---   --   ---xx   gd1985-04-06d2t06.shn
    17:18.20      183150284    ---   --   ---xx   gd1985-04-06d2t07.shn
     3:59.50       42277244    ---   --   ---xx   gd1985-04-06d2t08.shn
     9:14.25       97784444    ---   --   ---xx   gd1985-04-06d2t09.shn
     8:23.53       88853900    ---   --   ---xx   gd1985-04-06d3t01.shn
     5:39.26       59860796    ---   --   ---xx   gd1985-04-06d3t02.shn
   148:41.15     1573700668 B                     (totals for 21 files, 0.6446 overall compression ratio)



MD5s

7a9159cf63f4109a162ae572f1db7dfd *gd1985-04-06d3t02.shn
d06dc85582a64298b8b5492fad235a2c *gd1985-04-06d1t02.shn
4a2d0848296fb1be15e8ecc296190fd4 *gd1985-04-06d1t03.shn
1cab30be0aca3d7c2e68dd7f1034606a *gd1985-04-06d1t04.shn
d7463f79b9a6491e5b314d094fd78243 *gd1985-04-06d1t05.shn
7c889dd384a7b5bbcd4dd833ab86cb30 *gd1985-04-06d1t06.shn
a777b9557b1a52905504dcd800788f76 *gd1985-04-06d1t07.shn
6a2bf5e25d5abcd46a6e82b9ec5a4b01 *gd1985-04-06d1t08.shn
9ef060632ededcb93c367bc60aa4b8c0 *gd1985-04-06d1t09.shn
9ddf7d0367230a4459b3e7ddb33af4dc *gd1985-04-06d1t10.shn
fe678ced357e5bc2f069f5b0caadfa71 *gd1985-04-06d2t01.shn
7f5db1c8ae8d806ac06f24671db354c9 *gd1985-04-06d2t02.shn
19299a147a24573d19005473e37a0107 *gd1985-04-06d2t03.shn
5ba1e798d1cc1ee43dce4420bbe7e41b *gd1985-04-06d2t04.shn
15d06348ee27069b93afed99cd6f7f6f *gd1985-04-06d2t05.shn
867c418b32837a3e7309cd5afee49cff *gd1985-04-06d2t06.shn
ae8a2c9d52d04720aaba3d2bd96827d1 *gd1985-04-06d2t07.shn
9c6610a3afd1eda5516e35ed2360b353 *gd1985-04-06d2t08.shn
91c05a7bde9144c195b1c9d975c4d9d6 *gd1985-04-06d2t09.shn
9e0e94ed5414dcaced44b77d3a8e9c5c *gd1985-04-06d3t01.shn
a4c206acfe8c06144a1fa32a636edc6b *gd1985-04-06d1t01.shn




More information about the bittorrent mailing list