[bittorrent] GD, Providence, 09-07-1987, Aud New Source

Automated Mailer noreply-bt.e at etree.org
Wed Jul 5 19:25:15 MDT 2006


Band:           Grateful Dead
Torrent Name:   GD, Providence, 09-07-1987, Aud New Source
Uploaded by:    nfagdtrfb
DB Link:        
Details:        http://bt.etree.org/details.php?id=26878

Contact the seeder at http://db.etree.org/nfagdtrfb

If the link to this show does not work, it was probably removed for
being non-trade-friendly.

Description / text file:
-------------------------
GRATEFUL DEAD 
Civic Center 
Providence RI 
09-07-1987 

Disc One (78:34) 

01 crowd & tuning 
02 Feel Like A Stranger > 
03 Franklin's Tower 
04 Walkin' Blues 
05 When Push Comes To Shove 
06 My Brother Esau 
07 It Must Have Been The Roses 
08 crowd & tuning 
09 Far From Me 
10 Let It Grow 
-- set break -- 
11 crowd & tuning 
12 Iko Iko 
13 Saint Of Circumstance 

Disc Two (76:56) 

01 Ship Of Fools 
02 Uncle John's Band > 
03 PITB Jam > 
04 Drums > 
05 Space > 
06 Truckin' > 
07 Spoonful > 
08 Black Peter > 
09 Around & Around 
10 Good Lovin' > La Bamba > Good Lovin' 
-- encore -- 
11 crowd & tuning 
12 Knockin' On Heaven's Door 

Source: AUD, Nakamichi CM-300's with CP-4 shotgun capsules > 
Sony TC-D5M > Maxell MX-90 cassettes, with no Dolby. Set up 
in taper's section, mics on stand aprx 7-1/2 feet high. 

Transfer: MAC > Sony TC-D5M (no Dolby) > Marantz CDR-500 > 
EAC > Soundforge > CD-Wave > TLH v.1.0.0.72 (for SBE-OK, 
FLAC compression & checksums) > FLAC > bt.etree July 2006. 

Notes: The break between discs is seamless for reassembly 
onto longer media. The tape-flip in Space has been patched 
with the AUD source from LMA, from track 2:07 thru 2:13. 
Soundforge was used for the patch and to make fades. Taped 
and transferred by Andrew F.   ...ENJOY! 


MD-5 

ad45c4109e2dce84597760a3a4865454 *gd1987-09-07d1t01.flac 
0ba4ec41c941dea62c2cddd30358ff92 *gd1987-09-07d1t02.flac 
49befda29490a8b9f177ac8286a059b8 *gd1987-09-07d1t03.flac 
1269a73c577b086adb81bd04c97911e7 *gd1987-09-07d1t04.flac 
9c199ea5747fd890c6b5fe27552bfe17 *gd1987-09-07d1t05.flac 
7a5ddea4b7bbe51f04df5a24866a84c0 *gd1987-09-07d1t06.flac 
0c68b29f83cd71871565ed7e598f4bb6 *gd1987-09-07d1t07.flac 
e08ad6376143927a824b7648c5bb5eb4 *gd1987-09-07d1t08.flac 
d819f3c3e7be7259a562f4b0c1899ea9 *gd1987-09-07d1t09.flac 
96eaa54c3971c87ece382a46cbaa0209 *gd1987-09-07d1t10.flac 
84b9ac959f9aa28b8aab0fd473052648 *gd1987-09-07d1t11.flac 
e37e11b62a138f13743e4918d4b69fbc *gd1987-09-07d1t12.flac 
ced2f66e021af43dd7614c020cc17454 *gd1987-09-07d1t13.flac 
06a9e762d782eaf0c65136939f91e077 *gd1987-09-07d2t01.flac 
22ee78962137379166719011257a7d17 *gd1987-09-07d2t02.flac 
1bbede08910b4fc50d7b5a2c43f9cb68 *gd1987-09-07d2t03.flac 
ece6f6fac7a5b4ba8b5192efb32941a2 *gd1987-09-07d2t04.flac 
bf62417beb5b58a2f03a42ce324a410c *gd1987-09-07d2t05.flac 
78ffafffa8e2712319cdb4289cd0efd0 *gd1987-09-07d2t06.flac 
88661286fa1815fa34196970fe3e9577 *gd1987-09-07d2t07.flac 
dd6817563304e198ae66ee44c66b9d1c *gd1987-09-07d2t08.flac 
54e04417ab3b3330fc4c5b3ce34b443d *gd1987-09-07d2t09.flac 
1ead905981ce74f336bbf9383613f3a0 *gd1987-09-07d2t10.flac 
8bda451a66e6cdefe74b822c5e5decaa *gd1987-09-07d2t11.flac 
9493805a2d0c6e1f802541780f8bbc85 *gd1987-09-07d2t12.flac 

FFP 

gd1987-09-07d1t01.flac:0bf00f836749e3311553b112491dbee7 
gd1987-09-07d1t02.flac:7c366a8e6226bb3660e1b50bc42a7588 
gd1987-09-07d1t03.flac:dba3d009812473d12fd4d9a6adc43845 
gd1987-09-07d1t04.flac:a53404cfa8f74d2e352c85b860ab3d56 
gd1987-09-07d1t05.flac:f9f1e1094d60ae83232426b92cb9c4c9 
gd1987-09-07d1t06.flac:e9192e6349a7926ff5e702ac9cf17bde 
gd1987-09-07d1t07.flac:3a2c6c0122400e333666b0857b7d63bd 
gd1987-09-07d1t08.flac:7e3a6e956eeee1fe0097d6195ca0571e 
gd1987-09-07d1t09.flac:3241428086912921ba605225a891f8eb 
gd1987-09-07d1t10.flac:25ca94daea176c7b481e46b1e7921691 
gd1987-09-07d1t11.flac:46a79560a4c20bd906ec409c6c5003bb 
gd1987-09-07d1t12.flac:3d5a236b04d07e58eee3bd7f107b7737 
gd1987-09-07d1t13.flac:b551537cb6efe71b161db390664e0561 
gd1987-09-07d2t01.flac:cf4ab1379d14f9b2d44c5c4a64d92712 
gd1987-09-07d2t02.flac:f477b465596eeca5c6f7a13f7f2004f3 
gd1987-09-07d2t03.flac:b369675fd57882c00e1a8e2bd4b7ba87 
gd1987-09-07d2t04.flac:131f2894e9f5117b9eba88474586812d 
gd1987-09-07d2t05.flac:a779e10675eb75d48cbd2d833dba5544 
gd1987-09-07d2t06.flac:83e25a86327a33e27846cf0f61ff4c8d 
gd1987-09-07d2t07.flac:09c7bff6d4795d806edad7b549137f0d 
gd1987-09-07d2t08.flac:6448544916388861f4e1844f23619222 
gd1987-09-07d2t09.flac:f8afdccc7fe7b3912fe87e268bbfa1ed 
gd1987-09-07d2t10.flac:3d22d66860e769cd25442f0221ee3872 
gd1987-09-07d2t11.flac:e785bfe4b33e3cecc24600d8ce093a1f 
gd1987-09-07d2t12.flac:15602536590046efd1bd24db17232e70 

SHNTOOL 

    length     expanded size   cdr  WAVE problems filename 
     1:53.41       20029676    ---   --   ---xx   gd1987-09-07d1t01.flac 
     7:52.74       83434892    ---   --   ---xx   gd1987-09-07d1t02.flac 
    10:03.69      106531532    ---   --   ---xx   gd1987-09-07d1t03.flac 
     6:33.59       69464012    ---   --   ---xx   gd1987-09-07d1t04.flac 
     6:12.05       65632604    ---   --   ---xx   gd1987-09-07d1t05.flac 
     4:47.30       50697404    ---   --   ---xx   gd1987-09-07d1t06.flac 
     6:37.32       70106108    ---   --   ---xx   gd1987-09-07d1t07.flac 
     3:29.72       37036988    ---   --   ---xx   gd1987-09-07d1t08.flac 
     4:47.70       50791484    ---   --   ---xx   gd1987-09-07d1t09.flac 
    12:04.70      127878284    ---   --   ---xx   gd1987-09-07d1t10.flac 
     0:33.56        5952956    ---   --   ---xx   gd1987-09-07d1t11.flac 
     6:41.47       70846988    ---   --   ---xx   gd1987-09-07d1t12.flac 
     6:55.30       73276604    ---   --   ---xx   gd1987-09-07d1t13.flac 
     8:26.58       89394860    ---   --   ---xx   gd1987-09-07d2t01.flac 
     6:57.03       73565900    ---   --   ---xx   gd1987-09-07d2t02.flac 
     4:55.32       52113308    ---   --   ---xx   gd1987-09-07d2t03.flac 
    10:18.65      109168124    ---   --   ---xx   gd1987-09-07d2t04.flac 
     7:01.15       74299724    ---   --   ---xx   gd1987-09-07d2t05.flac 
     6:49.07       72164108    ---   --   ---xx   gd1987-09-07d2t06.flac 
     3:53.65       41254124    ---   --   ---xx   gd1987-09-07d2t07.flac 
     8:39.16       91589276    ---   --   ---xx   gd1987-09-07d2t08.flac 
     3:50.15       40607324    ---   --   ---xx   gd1987-09-07d2t09.flac 
     8:16.15       87529724    ---   --   ---xx   gd1987-09-07d2t10.flac 
     0:42.42        7507628    ---   --   ---xx   gd1987-09-07d2t11.flac 
     7:06.37       75233468    ---   --   ---xx   gd1987-09-07d2t12.flac 
   155:31.50     1646107100 B                     (totals for 25 files, 0.6020 overall compression ratio) 

There were no sector boundary errors. 




More information about the bittorrent mailing list