No subject


Mon Jul 3 15:39:51 MDT 2006


Recording Info:
SBD -> Cassette Master -> Sonic Solutions (20bit) -> SBM2 (Dithered To 16bit) -> 
CD (Master Production Discs) -> EAC -> SHN  (3 Discs Audio / 2 Discs SHN)

Patch Info:
Patches in Let It Grow and Drums supplied By 
AKG 414 -> Cm -> Dat -> CD -> EAC -> SHN

Source supplied by Richard Hale
Digitized and patched by David Gans
Converted to sHN By Charlie Miller on 8/6/04

MD5 checksum:

1ed1098d53197f75ea2551417dd21c93 *gd80-06-20d1t01.flac
91519e8a10095165e21e4bc653d81708 *gd80-06-20d1t02.flac
797d24a8a54c79fa5fb9457baf2adcc8 *gd80-06-20d1t03.flac
81a8ee766fe7c3478aff2a789056113f *gd80-06-20d1t04.flac
408da8e9875064b62bb7187cbc339771 *gd80-06-20d1t05.flac
cf44d8dd50f95364c60208ca8c344bdb *gd80-06-20d1t06.flac
41688db3b772439e497b8250971cc925 *gd80-06-20d1t07.flac
985119dad5c1c4dfa001eec361b963b0 *gd80-06-20d1t08.flac
1f853a73eccf150986c6e3b18355ecc4 *gd80-06-20d1t09.flac
3fc1bc8cebf464cc828d9d53b96949c9 *gd80-06-20d1t10.flac
60f3f110d67ac236bdb8511cd3dd0cd8 *gd80-06-20d1t11.flac
46e4fb8166f71884d17ed06385dd4190 *gd80-06-20d2t01.flac
030df4ec695829cb29e8bfdb1e9d0eae *gd80-06-20d2t02.flac
67daeae55824a519c37c4b609bd71675 *gd80-06-20d2t03.flac
94023ac61b00c4d96eb26e4c3bf8a3f6 *gd80-06-20d2t04.flac
9e51aaed15dd3bedd2553e7d758bad1a *gd80-06-20d2t05.flac
2b03a515d7d5b7a7ae246a7a285ff48f *gd80-06-20d2t06.flac
711c7c76084c4703865a43a2d721190a *gd80-06-20d2t07.flac
21fae5f5223fdf317ceb2f900ebe4d7e *gd80-06-20d2t08.flac
9ce78e8755692d273f25789cb68e9805 *gd80-06-20d2t09.flac
c9804d972bdb3606e797be7d3254e3f8 *gd80-06-20d3t01.flac
4bfc00aff09e1e580a35fb8d4e2ecc5c *gd80-06-20d3t02.flac
fb87981be1d2bb28e07e744f0a2be61a *gd80-06-20d3t03.flac
7ad18e186812a6dce710fc6983681dfa *gd80-06-20d3t04.flac
5ff375cc2a55ffc417ef1d2d400d89cb *gd80-06-20d3t05.flac
fdabef818f285b74a3e3de148777c490 *gd80-06-20d3t06.flac

FLAC ffp:

gd80-06-20d1t01.flac:13d75602abd8c63e4dbf0b3b513b3c15
gd80-06-20d1t02.flac:6cd1d5f68e84035a13a4756024e59823
gd80-06-20d1t03.flac:2c80fd48437491c2367cbbd383974283
gd80-06-20d1t04.flac:c23a9aaca245977cfafe4ade0cf0355d
gd80-06-20d1t05.flac:8fd1ae7346b4dce55469e30aa3818be9
gd80-06-20d1t06.flac:c9c6c6059290b09d9fa8c3b326eed3f6
gd80-06-20d1t07.flac:5b72cecdab6c37406b40935636cf422b
gd80-06-20d1t08.flac:c20267132f3e4b2b3f32352d74a5231e
gd80-06-20d1t09.flac:c3541cddd3c2a362889b4d769428fdbd
gd80-06-20d1t10.flac:30a0a443ec5545f62dd71a94b76a5f83
gd80-06-20d1t11.flac:4c1d46357d03fd5308039a409d847e98
gd80-06-20d2t01.flac:a342bdae1d359b9f731ac1cc04b5e8e6
gd80-06-20d2t02.flac:3b39ae981c5c866a519ec576dea4b0de
gd80-06-20d2t03.flac:cdda3998a0c794956b8fcc56c6b55a2e
gd80-06-20d2t04.flac:3d28abbb8caeddab7d133ea319edd6df
gd80-06-20d2t05.flac:26404f7e1a804fe7be39b839e002ad1d
gd80-06-20d2t06.flac:2b0f5065f2145725e130d1c0e4c7be2e
gd80-06-20d2t07.flac:5cf5663e028a1611e14116545a627e3a
gd80-06-20d2t08.flac:0effe80abeafd73d1099e07dc368ce69
gd80-06-20d2t09.flac:5fc1b7e70417a2f200564c43d43f173c
gd80-06-20d3t01.flac:484bc3363dea55adb832f91e27a487cf
gd80-06-20d3t02.flac:c776af9cae95601a4006e92da0e65f2e
gd80-06-20d3t03.flac:3329aa0e31fb8aa5ed24be27116871d7
gd80-06-20d3t04.flac:c42312cb35a7bd1125a7c7e82583c4b6
gd80-06-20d3t05.flac:0f2a40fa998b8388cb5a48d459c9b36c
gd80-06-20d3t06.flac:8ec5664ef5077ea96ecb4039edf27342

shntool output:

    length     expanded size   cdr  WAVE problems filename
     2:57.42       31321628    ---   --   ---xx   gd80-06-20d1t01.flac
     6:40.05       70571804    ---   --   ---xx   gd80-06-20d1t02.flac
    11:47.27      124778348    ---   --   ---xx   gd80-06-20d1t03.flac
     2:38.14       27904172    ---   --   ---xx   gd80-06-20d1t04.flac
     6:39.06       70397756    ---   --   ---xx   gd80-06-20d1t05.flac
    10:09.20      107474684    ---   --   ---xx   gd80-06-20d1t06.flac
    10:13.08      108152060    ---   --   ---xx   gd80-06-20d1t07.flac
     8:48.02       93143948    ---   --   ---xx   gd80-06-20d1t08.flac
     2:29.27       26347148    ---   --   ---xx   gd80-06-20d1t09.flac
     3:56.54       41757452    ---   --   ---xx   gd80-06-20d1t10.flac
     3:00.62       31897868    ---   --   ---xx   gd80-06-20d1t11.flac
     6:18.55       66808604    ---   --   ---xx   gd80-06-20d2t01.flac
     5:37.13       59477420    ---   --   ---xx   gd80-06-20d2t02.flac
     5:15.73       55737740    ---   --   ---xx   gd80-06-20d2t03.flac
     5:02.46       53381036    ---   --   ---xx   gd80-06-20d2t04.flac
     6:05.57       64520108    ---   --   ---xx   gd80-06-20d2t05.flac
    11:12.41      118637276    ---   --   ---xx   gd80-06-20d2t06.flac
    12:04.69      127875932    ---   --   ---xx   gd80-06-20d2t07.flac
     7:48.67       82712828    ---   --   ---xx   gd80-06-20d2t08.flac
     7:35.58       80398460    ---   --   ---xx   gd80-06-20d2t09.flac
     2:02.26       21581996    ---   --   ---xx   gd80-06-20d3t01.flac
     7:38.61       80934716    ---   --   ---xx   gd80-06-20d3t02.flac
     9:45.39      103285772    ---   --   ---xx   gd80-06-20d3t03.flac
     3:49.64       40546172    ---   --   ---xx   gd80-06-20d3t04.flac
     4:22.53       46341500    ---   --   ---xx   gd80-06-20d3t05.flac
     3:27.18       36557180    ---   --   ---xx   gd80-06-20d3t06.flac
   167:28.32     1772543608 B                     (totals for 26 files, 0.5827 overall compression ratio)



More information about the bittorrent mailing list