[bittorrent] Tea Leaf Green - 2006-06-23, The Attic, Santa Cruz, CA

Automated Mailer noreply-bt.e at etree.org
Sun Jul 2 07:52:18 MDT 2006


Band:           Tea Leaf Green
Torrent Name:   Tea Leaf Green - 2006-06-23, The Attic, Santa Cruz, CA
Uploaded by:    dueling
DB Link:        
Details:        http://bt.etree.org/details.php?id=26750

Contact the seeder at http://db.etree.org/dueling

If the link to this show does not work, it was probably removed for
being non-trade-friendly.

Description / text file:
-------------------------
Tea Leaf Green
The Attic
Santa Cruz, CA
6/23/06


Source: (On Stage) Crown SASS P-MK2 PZM + (FOH) Crown CM-700MP's > Shure FP42 > Sound Devices 744t @ 24/48

Conversion: Audacity > Wavelab 5 (16/44.1 w/UV22 HR) > CDWave > FLAC Frontend (level 6) > flac
Recorded by Bob Cogswell (sunauto at pacbell.net)
Converted and seeded by Graham Munda (dueling at magpage.com)


Disc 1

01) Kali-Yuga
02) Papa's in the Backroom
03) If It Wasn't for the Money
04) Rapture
05) One Reason
06) Bootlegger
07) John Brown
08) Make A Connection
09) All of Your Cigarettes
10) My Bastard Brother
11) Moonshine
(set II)
12) Warmup >
13) Vote on Tuesday

Disc 2

(set II cont.)
01) Faced with Love
02) These Two Chairs
03) Carter Hotel
04) Ride Together
05) Baseball Song
06) Earth and Sky
07) The Garden (Part III)
08) Asphalt Funk
(encore)
09) Don't Let It Down
10) Georgie P >
11) Dragonfly


Recording gear used:
Stage mic: Crown SASS P Mk 2 stereo condenser PZM (pressure zone microphone).
House mics: Crown CM-700 cardioid condensers, one each on the PA mains.


*******************flac fingerprint*********************
tlg2006-06-23d1t01.flac:74fdacb366dec986e5bcf9715cd079c4
tlg2006-06-23d1t02.flac:cd67774994c98134e1597f92be2d5769
tlg2006-06-23d1t03.flac:f2754f4de795c880c4dd3676f2e38a27
tlg2006-06-23d1t04.flac:63bf1e2cb07157fb60fb67eb59877a54
tlg2006-06-23d1t05.flac:fec83d4ee3bcf84d879d169acedc2430
tlg2006-06-23d1t06.flac:61744ef520b95dcce6bc459beb29e061
tlg2006-06-23d1t07.flac:9de747c3f4a5508665b482add315abe1
tlg2006-06-23d1t08.flac:d9f280d220b4f05a0aa5f767b2be2c5a
tlg2006-06-23d1t09.flac:9cbf1984fa3a1b13531e924a5b06344b
tlg2006-06-23d1t10.flac:87aedecdfcb2eefedb8103e00a919a79
tlg2006-06-23d1t11.flac:d398e584b5220d91f461ea3cbc831ede
tlg2006-06-23d1t12.flac:1bf804a0df0dd9fdae3460b99e409895
tlg2006-06-23d1t13.flac:1278e6da7b4d5cb6ce07dfe4a37d37a4
tlg2006-06-23d2t01.flac:f8284f61584eddc4d6389837619168a3
tlg2006-06-23d2t02.flac:c822fd1cff853a51b5ab811f4d8574e5
tlg2006-06-23d2t03.flac:69cad4a44d2d4902ee0a2bed86af514c
tlg2006-06-23d2t04.flac:c8cebe91db340c5e83aed16b08bcbd04
tlg2006-06-23d2t05.flac:ff3cd3961415391fabf7b82ad9981a9d
tlg2006-06-23d2t06.flac:a52578c27bc660ae11c209ee565a38d5
tlg2006-06-23d2t07.flac:b65c46541f99df97fd9b2a9711b3e1a5
tlg2006-06-23d2t08.flac:1851e4ef132bbc6d09fcb23cac94e484
tlg2006-06-23d2t09.flac:4d38e5b3a83e886c91401ffba5488043
tlg2006-06-23d2t10.flac:2bb78c1a94b4216a3da14f1ea7244ec6
tlg2006-06-23d2t11.flac:46699f0f58aecab78d0eec0c849fec7e

*******************Shntool Output***********************
    length     expanded size   cdr  WAVE problems filename
     9:35.65      101582924    ---   --   ---xx   tlg2006-06-23d1t01.flac
     6:58.50       73852844    ---   --   ---xx   tlg2006-06-23d1t02.flac
     4:58.32       52642508    ---   --   ---xx   tlg2006-06-23d1t03.flac
     4:52.42       51607628    ---   --   ---xx   tlg2006-06-23d1t04.flac
     4:58.11       52593116    ---   --   ---xx   tlg2006-06-23d1t05.flac
     6:08.20       64962284    ---   --   ---xx   tlg2006-06-23d1t06.flac
     6:44.65       71418524    ---   --   ---xx   tlg2006-06-23d1t07.flac
     5:01.05       53108204    ---   --   ---xx   tlg2006-06-23d1t08.flac
     4:57.63       52539020    ---   --   ---xx   tlg2006-06-23d1t09.flac
     4:39.21       49265036    ---   --   ---xx   tlg2006-06-23d1t10.flac
     4:55.26       52099196    ---   --   ---xx   tlg2006-06-23d1t11.flac
     5:32.71       58731836    ---   --   ---xx   tlg2006-06-23d1t12.flac
     7:09.20       75722684    ---   --   ---xx   tlg2006-06-23d1t13.flac
     5:13.33       55290860    ---   --   ---xx   tlg2006-06-23d2t01.flac
     4:14.32       44880908    ---   --   ---xx   tlg2006-06-23d2t02.flac
     4:19.44       45791132    ---   --   ---xx   tlg2006-06-23d2t03.flac
     8:13.50       87082844    ---   --   ---xx   tlg2006-06-23d2t04.flac
    10:20.42      109466828    ---   --   ---xx   tlg2006-06-23d2t05.flac
     6:27.22       68318588    ---   --   ---xx   tlg2006-06-23d2t06.flac
     4:09.52       44045948    ---   --   ---xx   tlg2006-06-23d2t07.flac
    13:14.59      140200412    ---   --   ---xx   tlg2006-06-23d2t08.flac
     4:45.44       50377532    ---   --   ---xx   tlg2006-06-23d2t09.flac
     8:28.33       89688860    ---   --   ---xx   tlg2006-06-23d2t10.flac
     5:07.45       54260684    ---   --   ---xx   tlg2006-06-23d2t11.flac
   151:07.47        1525.43 MB                    (totals for 24 files, 0.5899 overall compression ratio)



More information about the bittorrent mailing list