[bittorrent] GD 4/16/84 Rochester War Memorial, Rochester, NY [FOB] **Daily fix - patched, pitch-corrected**

Automated Mailer noreply-bt.e at etree.org
Sat Jul 1 08:10:28 MDT 2006


Band:           Grateful Dead
Torrent Name:   GD 4/16/84 Rochester War Memorial, Rochester, NY [FOB] **Daily fix - patched, pitch-corrected**
Uploaded by:    btet
DB Link:        
Details:        http://bt.etree.org/details.php?id=26720

Contact the seeder at http://db.etree.org/btet

If the link to this show does not work, it was probably removed for
being non-trade-friendly.

Description / text file:
-------------------------
By sheer coincidence, here's another Rachacha show. ;-)  I'll be starting  my Sunshine Daydream show with the opening Shakedown today - tune in from noon-2 PM EDT for Grateful Dead and more at http://www.wtju.net.  

Grateful Dead
04/16/1984
Rochester War Memorial
Rochester, NY
-----------------------------------------------------------------------------------
Fix of shnid 32884

I adjusted the pitch of this source down in CE Pro, doing a time/pitch stretch of 101.86%.  I also patched in the beginning of Shakedown Street and Me and My Uncle from the Neumann U-87 recording hosted on archive.org.  The volumes were matched as closely as possible and 4-6 second crossfades were used.  Because these are both AUDs, the patches are very transparent.  Shntool was used to clean up all the SBEs.

Please note, this is not the source on archive.org (which was used for the patches).  This is a much better recording which is not available there yet, but hopefully will be soon.

Bill Tetzeli (btet at adelphia.net)
7:01 PM 6/29/2006
-----------------------------------------------------------------------------------
Source: FOB Sennheiser 441s > Sony D5.  Patched out of Steve Adleman's D5>D5 at the show.
Transfer: MAC playback on Nakamichi BX-100 > Panasonic SV3700 DAT > Tascam CD-RW > MCDs extracted with EAC to WAV > FLAC. Originally recorded to analog MAC  and transferred to digital realm by B.Koucky.
Editing/remastering:  All editing with Wavelab 5 (Level fluctuations adjusted using gain function > Tape pauses between tracks during the first set & tape flips smoothed with crossfades > Waves L3 Multimaximizer at -1.1 dB threshold, ceiling -0.1 dB with hi res CD rendering > CDWAV 1.9 > FLAC (level 5) > bt.etree.org by C.Ladner.

Disc I - Set I
01  Shakedown Street (beginning patched)
02  Little Red Rooster
03  Peggy-O
04  Me & My Uncle > (beginning patched)
05  Mexicali Blues
06  Dupree's Diamond Blues
07  Cassidy
08  West LA Fadeaway
09  Might As Well

Disc II - Set II              
01  tuning/crowd 
02  Hell In A Bucket > 
03  Ship Of Fools
04  Far From Me>
05  He's Gone > Jam >
06  Drums
07  Space (with both Billy and Mickey)
08  The Other One >
09  Stella Blue >
10  Around & Around >
11  Johnny B. Goode
Encore
12  Day Job


MD5 checksum:

a501fa945e8623b04150f7b56dc2cc94 *gd84-04-16d1t01.flac
aacc2374aaa3aa522da5d43538c0e9dd *gd84-04-16d1t02.flac
cd62e6549bcadeef7c9a5ba9a1f81424 *gd84-04-16d1t03.flac
cfb10b6fce486af96e61c6f2238bb1c7 *gd84-04-16d1t04.flac
09dcec7afc64374c9bba228c442feb7c *gd84-04-16d1t05.flac
871bf6f3cf6549ce29f3a5fd69c71c43 *gd84-04-16d1t06.flac
d4f923630c1da3c01d550d7b7e223896 *gd84-04-16d1t07.flac
a20ab073e46c3e51018184c9375e4f0b *gd84-04-16d1t08.flac
abfe037788678d0bc458068a48abde32 *gd84-04-16d1t09.flac
5b985c80ffde07046390f29f8d22f33a *gd84-04-16d2t01.flac
74b0e71a1824ee2e162605efaa49e9f7 *gd84-04-16d2t02.flac
bb33483fb73c9bbfb40b87879c570a60 *gd84-04-16d2t03.flac
a6a6081458b957beaaef91328f40d732 *gd84-04-16d2t04.flac
10a3cdc64c4428453bc8c9953c000747 *gd84-04-16d2t05.flac
d7cce06cb309ea4170edd6cb7a323351 *gd84-04-16d2t06.flac
a0a91792d4923121b3c686e99bdac377 *gd84-04-16d2t07.flac
fcd7a206d3568fe2d3df9c2a235c5a87 *gd84-04-16d2t08.flac
bb50fd78f351f4e20ceeb27a2e9f69b7 *gd84-04-16d2t09.flac
a215f5f5295d406babe5c8286bb81574 *gd84-04-16d2t10.flac
ea8bc2e009ba589af6e8dabd8745053a *gd84-04-16d2t11.flac
86183aaff845b998a52a8fa261c8624c *gd84-04-16d2t12.flac

FLAC ffp:

gd84-04-16d1t01.flac:74a424900e3254d8ac420cc8f5def2a2
gd84-04-16d1t02.flac:e6a91076f905c1c2c338b4bf1295a020
gd84-04-16d1t03.flac:4a50fd746ac499ff671e43f00aaf9cca
gd84-04-16d1t04.flac:069e0917fa9a3ebd1eab7e476f368ea3
gd84-04-16d1t05.flac:f606a9e0db3b66f7f714f33ca8281d68
gd84-04-16d1t06.flac:aec88ead7ae6815ca8e664bb101490a4
gd84-04-16d1t07.flac:b931f86e4b8a10f73a6040e73d799c27
gd84-04-16d1t08.flac:517d8af253ea5d24cdd0d4b6f9e9d26c
gd84-04-16d1t09.flac:77838984d9bfc194e0198a13156813d6
gd84-04-16d2t01.flac:fdf78687b90b91b673e73c19370ba52b
gd84-04-16d2t02.flac:809395d3607a65989906e8b4de925c04
gd84-04-16d2t03.flac:808cb96867b38fe5b4a7e16b8d90f81a
gd84-04-16d2t04.flac:3e0becf9293bcfe3bfa339eada0c2d72
gd84-04-16d2t05.flac:5c38db4ea5913bb71067635bb17b4f71
gd84-04-16d2t06.flac:6f5feaa6bf09db68f5d2c73511ff9436
gd84-04-16d2t07.flac:af7e4a86ee718e617a2d1808f72e8a28
gd84-04-16d2t08.flac:91e71462fb0a88b0d5434fe42671909f
gd84-04-16d2t09.flac:cc54ccca9f11b49c08d3a8b53ccf52d9
gd84-04-16d2t10.flac:3e40ca51c4c24a8ee218651db0ef7362
gd84-04-16d2t11.flac:79f6fd1681849dfd33644610818b131e
gd84-04-16d2t12.flac:5125e3d8612d69705b5987c98f981a5a

shntool len:

    length     expanded size   cdr  WAVE problems filename
    13:03.41      138217676    ---   --   ---xx   gd84-04-16d1t01.flac
     9:05.08       96156860    ---   --   ---xx   gd84-04-16d1t02.flac
     6:48.54       72098252    ---   --   ---xx   gd84-04-16d1t03.flac
     3:15.07       34414508    ---   --   ---xx   gd84-04-16d1t04.flac
     5:08.35       54413564    ---   --   ---xx   gd84-04-16d1t05.flac
     7:18.04       77272652    ---   --   ---xx   gd84-04-16d1t06.flac
     6:01.70       63845084    ---   --   ---xx   gd84-04-16d1t07.flac
     7:46.68       82362380    ---   --   ---xx   gd84-04-16d1t08.flac
     4:28.61       47418716    ---   --   ---xx   gd84-04-16d1t09.flac
     0:41.58        7368860    ---   --   ---xx   gd84-04-16d2t01.flac
     6:13.29       65865452    ---   --   ---xx   gd84-04-16d2t02.flac
     8:45.40       92704124    ---   --   ---xx   gd84-04-16d2t03.flac
     4:15.59       45120812    ---   --   ---xx   gd84-04-16d2t04.flac
    14:26.57      152896508    ---   --   ---xx   gd84-04-16d2t05.flac
     7:31.27       79619948    ---   --   ---xx   gd84-04-16d2t06.flac
    14:04.05      148893404    ---   --   ---xx   gd84-04-16d2t07.flac
     5:00.09       52941212    ---   --   ---xx   gd84-04-16d2t08.flac
     7:41.06       81334556    ---   --   ---xx   gd84-04-16d2t09.flac
     3:44.55       39643004    ---   --   ---xx   gd84-04-16d2t10.flac
     4:28.06       47289356    ---   --   ---xx   gd84-04-16d2t11.flac
     4:30.04       47637452    ---   --   ---xx   gd84-04-16d2t12.flac
   144:19.28     1527514380 B                     (totals for 21 files, 0.6495 overall compression ratio)



More information about the bittorrent mailing list